<?xml version="1.0" standalone="no"?>
<!DOCTYPE svg PUBLIC "-//W3C//DTD SVG 1.1//EN" "http://www.w3.org/Graphics/SVG/1.1/DTD/svg11.dtd" >
<svg xmlns="http://www.w3.org/2000/svg">
<metadata>
This is a custom SVG webfont generated by Font Squirrel.
Copyright   : Generated in 2010 by FontLab Studio Copyright info pending
Designer    : Campivisivi
Foundry     : Campivisivi
</metadata>
<defs>
<font id="TitilliumText22LRegular" horiz-adv-x="1085" >
<font-face units-per-em="2048" ascent="1536" descent="-512" />
<missing-glyph horiz-adv-x="481" />
<glyph unicode=" "  horiz-adv-x="481" />
<glyph unicode="&#x09;" horiz-adv-x="481" />
<glyph unicode="&#xa0;" horiz-adv-x="481" />
<glyph unicode="!" d="M471 0v233h168v-233h-168zM471 1432h166l-4 -957h-158z" />
<glyph unicode="&#x22;" horiz-adv-x="634" d="M88 1427h150l-5 -450h-143zM399 1427h150l-4 -450h-144z" />
<glyph unicode="#" d="M16 369v131h228v364h-228v131h228v369h139v-369h315v369h140v-369h225v-131h-225v-364h225v-131h-225v-369h-140v369h-315v-369h-139v369h-228zM383 500h315v364h-315v-364z" />
<glyph unicode="$" d="M104 1034q0 371 453 371q27 0 41 -2l29 223h104l-31 -229l261 -33l-15 -139q-141 16 -264 26l-61 -483q205 -49 286.5 -124t81.5 -245q0 -418 -444 -417h-25l-31 -236q-104 6 -104 14l29 228q-139 12 -293 37l16 139q160 -23 295 -31l66 508q-213 49 -303.5 129 t-90.5 264zM256 1038q0 -115 56.5 -163t205.5 -84l60 466h-21q-301 0 -301 -219zM539 129h4q150 0 221.5 62.5t71.5 201.5q0 100 -52.5 147.5t-181.5 77.5z" />
<glyph unicode="%" d="M37 1155q0 283 231 283q233 0 234 -285q0 -289 -234 -289q-231 0 -231 291zM160 1155q0 -96 23.5 -141t84.5 -45q63 0 87 44t24 140q0 94 -23.5 136t-87.5 42q-61 0 -84.5 -42t-23.5 -134zM248 55l524 1377l96 -48l-522 -1376zM610 293q0 281 232 280q233 0 233 -282 q0 -289 -233 -289q-232 0 -232 291zM733 293q0 -98 23.5 -142.5t85 -44.5t86 45.5t24.5 139.5t-24.5 136t-86 42t-85 -42t-23.5 -134z" />
<glyph unicode="&#x26;" horiz-adv-x="1433" d="M98 418q0 166 77 260t237 156q-63 74 -84 135t-21 157q0 143 93.5 227.5t261.5 84.5q176 0 265 -84t89 -238q0 -141 -71 -227t-238 -166l292 -293q41 133 58 275l149 -3q-29 -213 -88 -372l264 -254l-96 -105l-246 232q-88 -123 -197.5 -178.5t-267.5 -55.5 q-477 0 -477 449zM254 420q0 -305 328 -305q117 0 198.5 44t145.5 144l-416 422q-135 -45 -195.5 -114.5t-60.5 -190.5zM461 1110q0 -139 92 -231l55 -58q141 61 197.5 120.5t56.5 164.5q0 188 -200.5 188t-200.5 -184z" />
<glyph unicode="'" horiz-adv-x="204" d="M20 1423h156l-10 -462h-141z" />
<glyph unicode="(" horiz-adv-x="532" d="M74 616.5q0 182.5 49 411.5t98 369l51 139h162q-23 -59 -54.5 -158.5t-85.5 -344.5t-54 -417q0 -342 178 -829l16 -43h-162q-23 51 -55.5 139t-87.5 319.5t-55 414z" />
<glyph unicode=")" horiz-adv-x="532" d="M74 -256q23 57 54.5 152.5t85.5 333t54 407.5q0 172 -48 396t-97 364l-49 139h162q23 -55 55.5 -147.5t87.5 -331t55 -420.5t-49 -405.5t-98 -354.5l-51 -133h-162z" />
<glyph unicode="*" d="M254 938l221 162l-219 157l63 86l216 -155l86 254l100 -33l-82 -260h266v-102h-268l82 -256l-98 -31l-86 258l-220 -162z" />
<glyph unicode="+" horiz-adv-x="937" d="M-47 475v143h440v439h144v-439h444v-143h-444v-442h-144v442h-440z" />
<glyph unicode="," horiz-adv-x="348" d="M53 -252l94 471h166l-112 -471h-148z" />
<glyph unicode="-" horiz-adv-x="901" d="M131 500v151h639v-151h-639z" />
<glyph unicode="." horiz-adv-x="507" d="M158 0v233h166v-233h-166z" />
<glyph unicode="/" d="M180 31l572 1421l145 -53l-571 -1419z" />
<glyph unicode="0" d="M47 653q0 399 123 560t371 161q168 0 272.5 -62.5t162.5 -223t58 -433.5q0 -190 -32.5 -323t-98 -209t-152.5 -109.5t-208 -33.5q-248 0 -372 150t-124 523zM215 653q0 -207 39 -323.5t107.5 -158.5t181.5 -42q170 0 246.5 111.5t76.5 414.5q0 326 -74.5 448t-250.5 122 q-174 0 -250 -122t-76 -450z" />
<glyph unicode="1" d="M133 1067l428 285h150v-1352h-158v1171l-346 -231z" />
<glyph unicode="2" d="M117 0v145l391 406q78 80 114.5 121t81 100t61.5 111.5t17 111.5q0 121 -71.5 173.5t-223.5 52.5q-66 0 -152.5 -11.5t-141.5 -21.5l-54 -12l-12 145q201 53 391 53q217 0 322.5 -87t105.5 -275q0 -143 -61.5 -249t-212.5 -259l-344 -352h653v-152h-864z" />
<glyph unicode="3" d="M102 27l17 143q221 -39 413 -39q293 0 293 250q0 236 -276 246h-275v143h273q88 0 167 66.5t79 169.5q0 117 -65.5 167t-211.5 50l-375 -39l-16 141q211 49 399 49q236 0 334 -84t98 -268q0 -49 -13 -93t-29.5 -73t-44 -55.5t-44 -37.5l-43 -27.5t-28.5 -16.5 q119 -43 177 -111.5t58 -220.5q0 -207 -106.5 -307t-333.5 -100q-94 0 -206 12t-175 24z" />
<glyph unicode="4" d="M59 254v127l385 971h172l-376 -949h477v433h157v-433h170v-149h-170v-262h-157v262h-658z" />
<glyph unicode="5" d="M100 39l19 141q242 -49 424 -49q135 0 215 81t80 228q0 264 -285 265q-72 0 -147.5 -20.5t-116.5 -41.5l-41 -18l-129 22l41 705h786v-150h-643l-35 -428q158 78 299 78q434 0 434 -406q0 -227 -118.5 -345.5t-333.5 -118.5q-92 0 -204 14t-177 29z" />
<glyph unicode="6" d="M68 682q0 692 528 692l371 -33l-15 -143q-184 25 -356 25q-176 0 -269.5 -117t-95.5 -340l52 20q53 18 138 39t150 21q453 0 453 -420q0 -215 -123 -330.5t-350 -115.5q-483 0 -483 702zM229 625q8 -498 322 -498q152 0 231.5 76t79.5 223q0 274 -303 274 q-158 -5 -330 -75z" />
<glyph unicode="7" d="M113 1202v150h839v-207l-524 -1172l-147 47l507 1133v49h-675z" />
<glyph unicode="8" d="M45 344q0 145 56.5 221t177.5 142q-111 55 -161 125.5t-50 191.5q0 172 128 261t353 89t357 -89t132 -263q0 -127 -51 -193.5t-174 -121.5q123 -55 184.5 -130t61.5 -210q0 -387 -510 -387q-504 -1 -504 364zM213 371q0 -242 336 -242q342 0 342 254q0 109 -60.5 161 t-179.5 85h-215q-113 -31 -168 -90t-55 -168zM236 1006q0 -90 48 -144.5t152 -93.5h215q111 35 165 90t54 146q0 221 -319 221q-315 0 -315 -219z" />
<glyph unicode="9" d="M70 924q0 211 127 330.5t342 119.5q487 0 487 -702q0 -377 -135 -534.5t-399 -157.5l-371 30l14 144q184 -25 357 -25q371 0 372 453q-205 -74 -352 -74q-442 0 -442 416zM233 924q0 -270 291 -271q63 0 148.5 17.5t138.5 36.5l55 18q-4 233 -82.5 366.5t-244.5 133.5 q-141 0 -223.5 -80t-82.5 -221z" />
<glyph unicode=":" horiz-adv-x="362" d="M123 0v233h168v-233h-168zM123 659v234h168v-234h-168z" />
<glyph unicode=";" horiz-adv-x="405" d="M49 -244l101 480h169l-131 -480h-139zM137 659v234h168v-234h-168z" />
<glyph unicode="&#x3c;" d="M129 555v160l711 430v-162l-564 -344l564 -358v-166q-51 27 -351.5 216z" />
<glyph unicode="=" d="M68 694v142h936v-142h-936zM70 309v142h936v-142h-936z" />
<glyph unicode="&#x3e;" d="M129 115v166l563 358l-563 344v162l711 -430v-160l-359.5 -224t-351.5 -216z" />
<glyph unicode="?" horiz-adv-x="790" d="M16 1401q233 55 344 55q221 0 326 -82t105 -274q0 -96 -40 -178t-97.5 -136.5t-115 -100.5t-97.5 -97t-40 -105v-77h-161v83q0 72 39.5 136.5t97.5 112.5l113 98q56 49 96.5 113.5t40.5 135.5q0 117 -62.5 165t-208.5 48q-45 0 -125.5 -12t-138.5 -24l-57 -13zM238 2v234 h168v-234h-168z" />
<glyph unicode="@" horiz-adv-x="2017" d="M106 535q0 494 234.5 720t691.5 226t668 -210t211 -646v-35q0 -158 -17.5 -268.5t-45 -177t-76 -103.5t-98.5 -49t-122 -12q-98 0 -152 21.5t-85 90.5q-209 -111 -359 -110q-76 0 -132 18t-112.5 69.5t-86 160t-29.5 268.5q0 276 90 410t324 134q41 0 100 -13t98 -25 l39 -13v33h154v-410q0 -238 13 -338t41 -126.5t97 -26.5q55 0 87 13.5t62 57.5t42 141t12 255v37q0 377 -167 541.5t-556 164.5q-395 0 -582.5 -188.5t-187.5 -609.5q0 -446 179.5 -624.5t590.5 -178.5l293 18l8 -147q-203 -18 -301 -19q-238 0 -402.5 45t-286.5 152.5 t-179.5 293.5t-57.5 460zM750 494q0 -215 59 -290t156 -75q121 0 303 86q-20 117 -21 350v293q-125 41 -213 41q-168 0 -226 -92t-58 -313z" />
<glyph unicode="A" horiz-adv-x="1236" d="M59 0l390 1425h346l383 -1423h-156l-109 356h-594l-102 -358h-158zM356 510h525l-211 770h-103z" />
<glyph unicode="B" horiz-adv-x="1265" d="M184 0v1425h512q422 0 422 -352q0 -139 -45 -218t-135 -122q106 -37 164.5 -112.5t58.5 -219.5q0 -215 -112.5 -308t-325.5 -93h-539zM340 145h377q137 0 209.5 60.5t72.5 204.5q0 242 -292 241h-367v-506zM340 795h365q131 0 191 64.5t60 193.5q0 121 -64.5 174 t-201.5 53h-350v-485z" />
<glyph unicode="C" horiz-adv-x="1097" d="M104 709q0 385 110 561t409 176q82 0 180 -12.5t155 -24.5l56 -10l-8 -142q-223 35 -367 35q-225 0 -299 -133t-74 -450q0 -313 74 -444.5t303 -131.5q57 0 147.5 9.5t151.5 17.5l64 10l6 -143q-227 -47 -389 -47q-156 0 -259.5 46t-160 144t-78 225.5t-21.5 313.5z" />
<glyph unicode="D" horiz-adv-x="1314" d="M184 0v1425h506q289 0 406.5 -180t117.5 -510q0 -164 -24.5 -288.5t-80.5 -229t-161.5 -161t-257.5 -56.5h-506zM340 150h350q360 0 361 585q0 121 -15.5 212t-54.5 169t-111.5 119t-179.5 41h-350v-1126z" />
<glyph unicode="E" horiz-adv-x="1155" d="M184 0v1425h860v-149h-704v-481h582v-148h-582v-497h704v-150h-860z" />
<glyph unicode="F" horiz-adv-x="1132" d="M184 0v1425h863v-149h-707v-551h584v-150h-584v-575h-156z" />
<glyph unicode="G" horiz-adv-x="1245" d="M106 711q0 375 120 555t425 180q96 0 212 -13.5t186 -27.5l67 -12l-6 -142q-254 43 -440 43q-233 0 -316.5 -136t-83.5 -447q0 -309 82 -444.5t316 -135.5q35 0 75.5 3l77.5 6t68 7.5t50 7.5t22 3v426h-236v143h391v-698q-291 -49 -461 -49q-307 0 -428 180t-121 551z " />
<glyph unicode="H" horiz-adv-x="1402" d="M184 0v1425h158v-630h721v630h156v-1425h-156v643h-721v-643h-158z" />
<glyph unicode="I" horiz-adv-x="505" d="M174 0v1425h158v-1425h-158z" />
<glyph unicode="J" horiz-adv-x="630" d="M68 0q145 0 188 39t43 203v1185h156q0 -217 1 -601t1 -603q0 -127 -20.5 -201.5t-75 -111.5t-117 -47t-176.5 -10v147z" />
<glyph unicode="K" horiz-adv-x="1218" d="M184 0v1425h158v-657l231 8l363 649h182l-405 -712l428 -713h-187l-376 627l-236 -9v-618h-158z" />
<glyph unicode="L" horiz-adv-x="1050" d="M184 0v1425h158v-1273h623v-152h-781z" />
<glyph unicode="M" horiz-adv-x="1740" d="M184 0v1425h275l411 -1198l414 1198h272v-1425h-157v1241h-29l-414 -1190h-174l-411 1190h-29v-1241h-158z" />
<glyph unicode="N" horiz-adv-x="1419" d="M184 0v1425h283l565 -1241h45v1241h158v-1425h-277l-573 1241h-43v-1241h-158z" />
<glyph unicode="O" horiz-adv-x="1333" d="M106 705q0 375 124 558t437.5 183t436.5 -182.5t123 -558.5q0 -383 -121 -554t-438.5 -171t-439.5 174t-122 551zM270 705q0 -305 81 -440.5t316.5 -135.5t316.5 132t81 444q0 303 -84 447t-313 144q-231 0 -314.5 -142t-83.5 -449z" />
<glyph unicode="P" horiz-adv-x="1241" d="M184 0v1425h518q231 0 342 -111.5t111 -344.5q0 -238 -112.5 -365t-340.5 -127h-360v-477h-158zM342 629h358q293 0 293 340q0 158 -69.5 231.5t-223.5 73.5h-358v-645z" />
<glyph unicode="Q" horiz-adv-x="1333" d="M106 705q0 375 124 558t437.5 183t436.5 -182.5t123 -558.5q0 -262 -52.5 -420t-181.5 -234l172 -278l-147 -70l-180 295q-74 -18 -170 -18q-317 0 -439.5 174t-122.5 551zM270 705q0 -305 81 -440.5t316.5 -135.5t316.5 132t81 444q0 303 -84 447t-313 144 q-231 0 -314.5 -142t-83.5 -449z" />
<glyph unicode="R" horiz-adv-x="1277" d="M184 0v1425h525q231 0 341.5 -103t110.5 -331q0 -332 -260 -411l273 -580h-175l-256 539h-401v-539h-158zM342 688h369q289 0 288 303q0 147 -70.5 216t-219.5 69h-367v-588z" />
<glyph unicode="S" horiz-adv-x="1093" d="M90 1067q0 381 467 381l416 -41l-15 -143q-283 33 -401 32q-309 0 -309 -225q0 -131 70.5 -179t277.5 -93q227 -51 317.5 -129t90.5 -258q0 -430 -459 -430l-436 43l16 143q272 -35 418 -35q154 0 227.5 63.5t73.5 209.5q0 115 -66.5 165t-249.5 84q-240 51 -339 133 t-99 279z" />
<glyph unicode="T" horiz-adv-x="1007" d="M-8 1274v151h1024v-151h-432v-1274h-156v1274h-436z" />
<glyph unicode="U" horiz-adv-x="1310" d="M160 430v995h157v-995q0 -297 332 -297q170 0 258 68.5t88 228.5v995h156v-995q0 -236 -126 -342t-376 -106q-242 0 -365.5 105t-123.5 343z" />
<glyph unicode="V" horiz-adv-x="1214" d="M59 1425h164l332 -1275h109l327 1275h164l-371 -1425h-350z" />
<glyph unicode="W" horiz-adv-x="1843" d="M76 1425h162l260 -1267h59l274 1255h179l282 -1255h60l254 1267h161l-303 -1425h-286l-256 1190l-252 -1190h-285z" />
<glyph unicode="X" horiz-adv-x="1189" d="M61 0l431 707l-431 718h179l356 -598l354 598h178l-423 -718l423 -707h-178l-352 590l-358 -590h-179z" />
<glyph unicode="Y" horiz-adv-x="1130" d="M39 1425h176l352 -639l348 639h177l-445 -815v-610h-158v612z" />
<glyph unicode="Z" horiz-adv-x="1167" d="M123 -2v195l731 1040v41h-731v151h921v-194l-731 -1043v-38h731v-152h-921z" />
<glyph unicode="[" horiz-adv-x="614" d="M84 -252v1786h430v-148h-274v-1490h274v-148h-430z" />
<glyph unicode="\" horiz-adv-x="1099" d="M145 1389l166 71l631 -1421l-166 -68z" />
<glyph unicode="]" horiz-adv-x="614" d="M84 -104h274v1490h-274v148h430v-1786h-430v148z" />
<glyph unicode="^" d="M98 666l359 686h159l371 -686h-166l-284 534l-275 -534h-164z" />
<glyph unicode="_" horiz-adv-x="1064" d="M55 -29h877v-143h-877v143z" />
<glyph unicode="`" horiz-adv-x="483" d="M-2 1399l53 135l447 -193l-49 -118z" />
<glyph unicode="a" horiz-adv-x="1069" d="M100 293q0 145 76 217t236 86l323 31v84q0 186 -178 186l-391 -27l-6 134q246 41 403 40q164 0 244 -80.5t80 -252.5v-504q4 -80 119 -94l-7 -133q-166 0 -241 77q-184 -78 -379 -77q-133 0 -206 81.5t-73 231.5zM256 297q0 -88 38 -136t107.5 -48t152.5 15t132 32l49 14 v328l-303 -25q-176 -16 -176 -180z" />
<glyph unicode="b" horiz-adv-x="1107" d="M178 2v1468h154v-493q154 68 299 67q207 0 291 -117.5t84 -396.5q0 -307 -103.5 -428.5t-380.5 -121.5q-55 0 -141 6l-143 10zM332 129q133 -12 188 -12q201 0 265.5 91t64.5 318q0 205 -50 291t-184 86q-135 0 -284 -55v-719z" />
<glyph unicode="c" horiz-adv-x="894" d="M102 530q0 279 97.5 396.5t326.5 117.5q41 0 111 -8t119 -16l49 -6l-4 -133q-164 18 -242 18q-174 0 -236.5 -81t-62.5 -288q0 -233 58.5 -320t240.5 -87l244 18l6 -133q-193 -29 -285 -28q-242 0 -332 121.5t-90 428.5z" />
<glyph unicode="d" horiz-adv-x="1112" d="M102 508q0 276 99.5 406t328.5 130q117 0 250 -26v416h154v-1434h-154v68q-158 -88 -311 -88q-82 0 -142.5 21.5t-114.5 75.5t-82 162.5t-28 268.5zM256 504q0 -119 18.5 -198t54.5 -116.5t72.5 -53t87.5 -15.5q61 0 134 19.5t114 37.5l43 19v686q-170 23 -241 22 q-156 0 -219.5 -96t-63.5 -305z" />
<glyph unicode="e" horiz-adv-x="1038" d="M102 506q0 539 430 538q207 0 309.5 -115.5t102.5 -363.5l-8 -119h-678q2 -168 62.5 -247.5t207.5 -79.5q68 0 162 5t154 9l59 4l4 -125q-231 -33 -397 -32q-223 0 -315.5 128t-92.5 398zM258 571h533q0 182 -61.5 259t-197.5 77q-274 0 -274 -336z" />
<glyph unicode="f" horiz-adv-x="684" d="M57 885v139h129v92q0 217 60.5 295t214.5 78l207 -14l-2 -127q-115 4 -174 4q-88 0 -121 -49.5t-33 -188.5v-90h299v-139h-299v-885h-152v885h-129z" />
<glyph unicode="g" horiz-adv-x="1060" d="M96 -172q0 84 37 136t125 118q-55 37 -55 141q0 16 17.5 57.5t33.5 71.5l16 33q-160 74 -159 309q0 350 381 350l213 -26l299 6v-131h-185q63 -68 64 -199q0 -195 -94.5 -270.5t-303.5 -75.5q-55 0 -100 8q-37 -90 -37 -116q0 -63 39 -79t209 -16q225 0 311 -61t86 -240 q0 -334 -456 -333q-246 0 -343.5 67.5t-97.5 249.5zM248 -160q0 -109 60.5 -150.5t230.5 -41.5q156 0 227.5 45t71.5 145q0 111 -52.5 141.5t-199.5 30.5l-224 10q-66 -49 -90 -86t-24 -94zM264 694q0 -115 48 -165t173 -50q131 0 187.5 48t56.5 167q0 129 -52 173t-188 44 q-117 0 -171 -49t-54 -168z" />
<glyph unicode="h" horiz-adv-x="1157" d="M178 0v1495h154v-520q172 70 315 69q207 0 276.5 -111.5t69.5 -397.5v-535h-153v532q0 213 -41 292t-174 79q-61 0 -134 -15.5t-116 -29.5l-43 -14v-844h-154z" />
<glyph unicode="i" horiz-adv-x="483" d="M166 0v1024h151v-1024h-151zM166 1255v179h151v-179h-151z" />
<glyph unicode="j" horiz-adv-x="507" d="M-66 -342q160 92 208 155.5t48 198.5v1012h152v-1014q0 -188 -67.5 -282.5t-272.5 -198.5zM190 1262v180h152v-180h-152z" />
<glyph unicode="k" horiz-adv-x="1017" d="M178 0v1470h154v-858l157 9l306 403h172l-342 -471l348 -553h-174l-307 469l-160 -8v-461h-154z" />
<glyph unicode="l" horiz-adv-x="495" d="M172 0v1470h152v-1470h-152z" />
<glyph unicode="m" horiz-adv-x="1769" d="M178 0v1024h154v-70q123 74 256 82q41 5 72 5q23 0 40 -3q127 -12 189 -86q244 92 371 92q205 0 275.5 -110.5t70.5 -401.5v-532h-154v485q0 250 -38 334t-177 84q-135 0 -287 -76q25 -70 25 -295v-532h-154v528q0 221 -40 298t-175 77q-61 0 -129.5 -19.5t-107.5 -37.5 l-37 -19v-827h-154z" />
<glyph unicode="n" horiz-adv-x="1163" d="M178 0v1024h154v-68q172 88 317 88q205 0 274.5 -111.5t69.5 -400.5v-532h-151v530q0 215 -41 294t-176 79t-293 -76v-827h-154z" />
<glyph unicode="o" horiz-adv-x="1081" d="M102 526q0 270 101.5 394t339.5 124q229 0 332.5 -128t103.5 -394q0 -281 -94 -411.5t-342 -130.5q-252 0 -346.5 126.5t-94.5 419.5zM260 526q0 -229 55.5 -319t227.5 -90q170 0 224 92t54 313q0 205 -65.5 294t-212.5 89q-162 0 -222.5 -83t-60.5 -296z" />
<glyph unicode="p" horiz-adv-x="1110" d="M178 -455v1479h154v-72q154 92 305 92q195 0 283 -122.5t88 -397.5q0 -299 -103.5 -421.5t-343.5 -122.5q-125 0 -229 22v-457h-154zM332 139q98 -23 221 -22q168 0 233.5 92t65.5 319q0 201 -59.5 288t-176.5 87q-133 0 -284 -80v-684z" />
<glyph unicode="q" horiz-adv-x="1099" d="M102 494q0 283 104.5 416.5t362.5 133.5l353 -20v-1479h-154v490q-111 -55 -258 -55q-219 0 -313.5 128t-94.5 386zM258 496q0 -190 57.5 -284.5t194.5 -94.5t258 63v717q-133 8 -197 8q-178 0 -245.5 -97t-67.5 -312z" />
<glyph unicode="r" horiz-adv-x="729" d="M178 0v1024h154v-135q158 119 356 155v-159q-86 -16 -175 -51t-136 -64l-45 -27v-743h-154z" />
<glyph unicode="s" horiz-adv-x="1001" d="M113 745q0 156 105.5 227.5t262.5 71.5l371 -38l-4 -134q-227 33 -359 33q-221 0 -221 -153q0 -72 49.5 -103t200.5 -53q211 -33 290 -93.5t79 -203.5q0 -172 -101.5 -245.5t-298.5 -73.5l-360 38l8 134q233 -35 338 -35q133 0 195.5 38t62.5 138q0 78 -50 108.5 t-208 55.5q-201 31 -280.5 88t-79.5 200z" />
<glyph unicode="t" horiz-adv-x="743" d="M55 885v139h146v313h153v-313h324v-139h-324v-477q0 -176 24.5 -230.5t123.5 -54.5l182 10l8 -133q-135 -23 -207 -23q-162 0 -223 79t-61 296v533h-146z" />
<glyph unicode="u" horiz-adv-x="1144" d="M164 489v535h151v-532q0 -223 39 -299t178 -76q59 0 130 19.5t112 37.5l39 19v831h152v-1024h-152v66q-160 -86 -303 -86q-209 0 -277.5 108t-68.5 401z" />
<glyph unicode="v" horiz-adv-x="987" d="M49 1024h160l246 -893h75l250 893h156l-291 -1024h-307z" />
<glyph unicode="w" horiz-adv-x="1550" d="M57 1024h154l205 -885h33l245 865h162l244 -865h33l206 885h154l-244 -1024h-260l-215 801l-219 -801h-256z" />
<glyph unicode="x" horiz-adv-x="942" d="M55 0l320 512l-320 512h166l250 -401l250 401h168l-322 -512l322 -512h-168l-250 399l-248 -399h-168z" />
<glyph unicode="y" horiz-adv-x="987" d="M49 1024h154l256 -877h69l256 877h154l-426 -1479h-154l131 455h-149z" />
<glyph unicode="z" horiz-adv-x="980" d="M111 0v139l575 746h-575v139h759v-139l-575 -746h575v-139h-759z" />
<glyph unicode="{" horiz-adv-x="628" d="M20 571v131q115 29 160 80.5t45 141.5q0 27 -7 124t-7 138q0 188 91 270t302 90l2 -147q-137 -8 -185 -58.5t-48 -162.5q0 -35 7 -129.5t7 -122.5q0 -127 -45 -188.5t-160 -98.5q113 -37 159 -100.5t46 -190.5q0 -6 -7 -100t-7 -137q0 -113 48 -165t185 -61l-2 -147 q-209 8 -301 92t-92 266q0 43 7 135.5t7 114.5q0 90 -45 142t-160 83z" />
<glyph unicode="|" d="M455 -260v1735h155v-1735h-155z" />
<glyph unicode="}" horiz-adv-x="628" d="M20 -115q135 8 184.5 60.5t49.5 165.5q0 41 -7 123.5t-7 113.5q0 127 46 190.5t158 100.5q-115 37 -159.5 98.5t-44.5 188.5q0 29 7 123t7 129q0 113 -49 163t-185 58l3 147q211 -8 302 -90t91 -270q0 -41 -7.5 -138.5t-7.5 -123.5q0 -90 45.5 -141.5t159.5 -80.5v-131 q-115 -31 -160 -83t-45 -142q0 -23 7.5 -115t7.5 -135q0 -182 -92.5 -266t-300.5 -92z" />
<glyph unicode="~" d="M131 668q12 12 34.5 30.5t83 49t111.5 30.5q63 0 199.5 -51t179.5 -51q35 0 85 24.5t83 49.5l33 22l14 -147q-12 -12 -32.5 -29.5t-78 -47.5t-106.5 -30q-63 0 -202.5 51.5t-180.5 51.5q-39 0 -90 -25t-84 -49l-33 -25z" />
<glyph unicode="&#xa1;" d="M471 788v234h168v-234h-168zM473 -410l4 957h158l4 -957h-166z" />
<glyph unicode="&#xa2;" horiz-adv-x="894" d="M82 508q0 426 362 444v242h136v-248l206 -20l-6 -138q-188 14 -266 15q-152 0 -211 -65.5t-59 -229.5q0 -166 58 -225.5t226 -59.5l254 13l6 -138q-121 -14 -206 -20v-244h-136v240q-190 10 -277 106.5t-87 327.5z" />
<glyph unicode="&#xa3;" d="M168 0v135h174v586h-137v135h137v131q0 236 77 321t238 85q41 0 105.5 -6.5t109.5 -14.5l43 -6v-133q-170 23 -253 22q-98 0 -133 -57t-35 -221v-121h348v-135h-348v-586h315l156 33l26 -131l-168 -37h-655z" />
<glyph unicode="&#xa4;" horiz-adv-x="1083" d="M88 170l143 143q-59 92 -59 203t59 203l-143 143l109 109l143 -146q92 59 202.5 59.5t202.5 -59.5l144 146l108 -109l-145 -143q59 -92 59 -202.5t-59 -203.5l145 -143l-108 -109l-144 144q-92 -59 -202.5 -59.5t-202.5 59.5l-143 -144zM319 516q0 -94 64 -160 q66 -66 160 -65.5t159 65.5q63 66 63.5 160t-63.5 160q-66 66 -159.5 65.5t-159.5 -65.5q-64 -66 -64 -160z" />
<glyph unicode="&#xa5;" horiz-adv-x="1105" d="M27 1352h176l352 -553l348 553h176l-350 -574h279v-133h-357l-16 -39v-131h375v-133h-375v-342h-158v342h-379v133h379v131l-16 39h-365v133h287z" />
<glyph unicode="&#xa6;" d="M451 -262v782h153v-782h-153zM451 754v782h153v-782h-153z" />
<glyph unicode="&#xa7;" d="M139 522q0 80 43 156t76 102q-90 66 -90 228q0 326 393 325l336 -35l-8 -129q-223 31 -322 31q-131 0 -190.5 -45t-59.5 -143.5t62.5 -136t230.5 -68.5q180 -35 255 -94.5t75 -202.5q0 -137 -90 -268q76 -66 76 -205q0 -344 -391 -344q-57 0 -147.5 8t-149.5 16l-62 11 l14 129q223 -31 336 -31q252 0 252 203q0 92 -59.5 123.5t-235.5 64.5q-184 35 -264 98.5t-80 206.5zM293 545q0 -90 51 -129t180 -62q147 -29 209 -55q10 14 30.5 74.5t20.5 118.5q0 90 -52 126.5t-183 61.5q-133 23 -189 45q-67 -112 -67 -180z" />
<glyph unicode="&#xa8;" horiz-adv-x="483" d="M-25 1280v184h148v-184h-148zM385 1280v184h150v-184h-150z" />
<glyph unicode="&#xa9;" d="M20 889q0 229 149.5 387t373.5 158q227 0 375.5 -159t148.5 -386q0 -229 -148.5 -386t-377.5 -157q-223 0 -372 158t-149 385zM111 888.5q0 -190.5 122.5 -321.5t309 -131t310.5 131t124 321.5t-124 322.5t-310 132q-184 0 -308 -132t-124 -322.5zM303 891 q0 156 54.5 233.5t187.5 77.5l153 -12l-2 -125q-72 12 -151 12q-72 0 -95.5 -46t-23.5 -140q0 -190 119 -191l151 15l2 -125q-76 -16 -153 -17q-133 0 -187.5 78t-54.5 240z" />
<glyph unicode="&#xaa;" horiz-adv-x="1060" d="M283 954q0 143 153 156l209 14v47q0 66 -24.5 89.5t-81.5 23.5l-213 -14l-4 63q141 16 217 17q88 0 129 -42t41 -139v-274q12 -41 75 -47l-4 -57q-66 2 -110 45q-129 -45 -244 -45q-63 0 -103 44.5t-40 118.5zM350 950q0 -94 82 -94q41 0 94.5 8t85.5 17l33 10v174 l-199 -12q-51 -4 -73.5 -28t-22.5 -75z" />
<glyph unicode="&#xab;" horiz-adv-x="1200" d="M184 446v123l387 293v-157l-254 -193l254 -215v-160zM670 446v123l389 293v-157l-256 -193l256 -215v-160z" />
<glyph unicode="&#xac;" d="M125 561v148h840v-478h-152v330h-688z" />
<glyph unicode="&#xae;" d="M4 888.5q0 235.5 149.5 397.5t389 162t392 -162t152.5 -397q0 -233 -153.5 -396t-390.5 -163q-240 0 -389.5 161.5t-149.5 397zM94 889q0 -195 129 -332t319.5 -137t320.5 137t130 332q0 197 -130 334t-320 137q-193 0 -321 -136t-128 -335zM315 565v645h215 q127 0 184.5 -44t57.5 -150q0 -150 -102 -193l116 -258h-127l-108 244h-119v-244h-117zM432 907h121q55 0 79.5 22.5t24.5 80.5q0 55 -30.5 78.5t-96.5 23.5h-98v-205z" />
<glyph unicode="&#xaf;" horiz-adv-x="483" d="M-45 1298v136h596v-136h-596z" />
<glyph unicode="&#xb0;" d="M209 1155q0 129 81 210t210 81t210 -81t81 -210t-81 -209t-210 -80t-210 80t-81 209zM313 1155q0 -84 51.5 -136t135.5 -52t137 52t53 136t-53 137.5t-137 53.5t-135.5 -53.5t-51.5 -137.5z" />
<glyph unicode="&#xb1;" d="M80 651v142h393v266h143v-266h402v-142h-402v-266h-143v266h-393zM82 123v141h938v-141h-938z" />
<glyph unicode="&#xb2;" horiz-adv-x="542" d="M45 979v115l180 176q104 100 105 170q0 74 -101 73l-172 -20l-6 121q123 25 211 24q106 0 155.5 -45t49.5 -141q0 -117 -127 -231l-125 -123h260v-119h-430z" />
<glyph unicode="&#xb3;" horiz-adv-x="542" d="M51 979l10 115q115 -14 205 -15q100 0 101 84q0 86 -95 86h-135v111h133q29 0 53.5 26.5t24.5 63.5q0 68 -92 68l-186 -15l-11 115q121 20 209 20q217 0 217 -172q0 -102 -82 -153q51 -16 75 -49t24 -107q0 -199 -219 -199q-45 0 -102.5 5.5t-94.5 11.5z" />
<glyph unicode="&#xb4;" horiz-adv-x="548" d="M49 1341l447 195l55 -143l-451 -176z" />
<glyph unicode="&#xb5;" d="M156 -487v1511h153v-553q0 -209 40 -281.5t175 -72.5q61 0 131 19.5t111 37.5l39 19v831h151v-1024h-151v66q-160 -86 -303 -86q-135 0 -193 65v-532h-153z" />
<glyph unicode="&#x3bc;" d="M156 -487v1511h153v-553q0 -209 40 -281.5t175 -72.5q61 0 131 19.5t111 37.5l39 19v831h151v-1024h-151v66q-160 -86 -303 -86q-135 0 -193 65v-532h-153z" />
<glyph unicode="&#xb6;" d="M16 1055q0 166 108.5 272.5t274.5 106.5h674v-125h-149v-1309h-138v1309h-237v-1309h-137v680h-15q-166 0 -273.5 104.5t-107.5 270.5z" />
<glyph unicode="&#xb7;" horiz-adv-x="507" d="M158 502v233h166v-233h-166z" />
<glyph unicode="&#xb8;" horiz-adv-x="1705" d="M784 -430l7 98q80 -6 135 -6q90 0 90 78q0 70 -90 70h-86v192h84v-102q121 0 175 -33t54 -127q0 -184 -192 -184q-41 0 -85.5 3t-68.5 7z" />
<glyph unicode="&#xb9;" horiz-adv-x="542" d="M61 1475l209 143h123v-639h-131v496l-139 -97z" />
<glyph unicode="&#xba;" horiz-adv-x="1077" d="M295 1073q0 276 235 277q119 0 175.5 -66.5t56.5 -210.5q0 -283 -232 -282q-235 -1 -235 282zM365 1073q0 -117 38.5 -167t126.5 -50t125 50t37 167t-37 164t-125 47t-126.5 -48t-38.5 -163z" />
<glyph unicode="&#xbb;" horiz-adv-x="1200" d="M141 137v160l256 215l-256 193v157l389 -293v-123zM629 137v160l254 215l-254 193v157l387 -293v-123z" />
<glyph unicode="&#xbf;" horiz-adv-x="790" d="M16 -76q0 96 40 178t97.5 136.5t115 100.5t97.5 97t40 105v77h161v-83q0 -72 -40 -136.5t-97 -113.5l-114 -98q-56 -48 -96 -112.5t-40 -135.5q0 -117 62.5 -165t208.5 -48q45 0 125.5 12t138.5 24l57 13l19 -152q-233 -55 -345 -55q-221 0 -325.5 81.5t-104.5 274.5z M401 788v234h168v-234h-168z" />
<glyph unicode="&#xc0;" horiz-adv-x="1236" d="M63 0l390 1425h346l383 -1423h-156l-108 356h-594l-103 -358h-158zM336 1774l57 141l447 -193l-52 -127zM360 510h525l-211 770h-103z" />
<glyph unicode="&#xc1;" horiz-adv-x="1236" d="M63 0l390 1425h346l383 -1423h-156l-108 356h-594l-103 -358h-158zM360 510h525l-211 770h-103zM381 1751l446 195l56 -144l-451 -176z" />
<glyph unicode="&#xc2;" horiz-adv-x="1236" d="M63 0l390 1425h346l383 -1423h-156l-108 356h-594l-103 -358h-158zM301 1622l256 303h123l258 -303h-170l-147 172l-150 -172h-170zM360 510h525l-211 770h-103z" />
<glyph unicode="&#xc3;" horiz-adv-x="1236" d="M63 0l390 1425h344l385 -1423h-158l-106 356h-594l-105 -358h-156zM279 1794q104 111 188 111q53 0 163.5 -50.5t137.5 -50.5q43 0 143 82l35 -119q-94 -104 -178 -104q-47 0 -159.5 51t-141.5 51q-49 0 -152 -88zM360 510h523l-209 770h-103z" />
<glyph unicode="&#xc4;" horiz-adv-x="1236" d="M63 0l390 1425h344l385 -1423h-158l-106 356h-594l-105 -358h-156zM360 510h523l-209 770h-103zM375 1690v184h147v-184h-147zM784 1690v184h148v-184h-148z" />
<glyph unicode="&#xc5;" horiz-adv-x="1236" d="M63 0l375 1372q-59 59 -59 152q0 100 68.5 157.5t175 57.5t174 -57.5t67.5 -157.5q0 -88 -53 -146l371 -1376h-156l-108 356h-594l-103 -358h-158zM360 510h525l-211 770h-103zM504 1524q0 -80 69 -99h95q72 20 71 99q0 49 -30.5 75.5t-86 26.5t-87 -26.5t-31.5 -75.5z " />
<glyph unicode="&#xc6;" horiz-adv-x="1839" d="M82 0l459 1425h1198v-149h-705v-471h582v-150h-582v-505h705v-150h-860v358h-514l-121 -358h-162zM408 510h471v766h-224z" />
<glyph unicode="&#xc7;" horiz-adv-x="1099" d="M104 709q0 385 110 561t409 176q82 0 180 -12.5t155 -24.5l56 -10l-8 -142q-223 35 -367 35q-225 0 -299 -133t-74 -450q0 -313 74 -444.5t303 -131.5q57 0 147.5 9.5t151.5 17.5l64 10l6 -143q-209 -43 -369 -47v-80q121 0 175 -33t54 -127q0 -184 -192 -184 q-41 0 -85 3t-67 7l-24 4l6 98q80 -6 135 -6q90 0 90 78q0 70 -90 70h-86v172q-264 18 -359.5 192.5t-95.5 534.5z" />
<glyph unicode="&#xc8;" horiz-adv-x="1155" d="M184 0v1425h860v-149h-704v-481h582v-148h-582v-497h704v-150h-860zM356 1774l58 141l446 -193l-51 -127z" />
<glyph unicode="&#xc9;" horiz-adv-x="1171" d="M188 0v1425h861v-149h-705v-481h582v-148h-582v-497h705v-150h-861zM395 1751l447 195l55 -144l-451 -176z" />
<glyph unicode="&#xca;" horiz-adv-x="1171" d="M188 0v1425h861v-149h-705v-481h582v-148h-582v-497h705v-150h-861zM315 1622l256 303h123l258 -303h-170l-147 172l-150 -172h-170z" />
<glyph unicode="&#xcb;" horiz-adv-x="1171" d="M188 0v1425h861v-149h-705v-481h582v-148h-582v-497h705v-150h-861zM350 1690v184h148v-184h-148zM760 1690v184h149v-184h-149z" />
<glyph unicode="&#xcc;" horiz-adv-x="505" d="M-53 1774l57 141l447 -193l-52 -127zM174 0v1425h158v-1425h-158z" />
<glyph unicode="&#xcd;" horiz-adv-x="505" d="M20 1731l447 194l55 -143l-450 -176zM174 0v1425h158v-1425h-158z" />
<glyph unicode="&#xce;" horiz-adv-x="505" d="M-88 1636l272 277h138l272 -277h-178l-162 154l-160 -154h-182zM174 0v1425h158v-1425h-158z" />
<glyph unicode="&#xcf;" horiz-adv-x="505" d="M-31 1679v185h150v-185h-150zM174 0v1425h158v-1425h-158zM393 1679v185h148v-185h-148z" />
<glyph unicode="&#xd0;" horiz-adv-x="1314" d="M45 627v149h139v649h506q289 0 406.5 -180t117.5 -510q0 -164 -24.5 -288.5t-80.5 -229t-161.5 -161t-257.5 -56.5h-506v627h-139zM340 150h350q360 0 361 585q0 121 -15.5 212t-54.5 169t-111.5 119t-179.5 41h-350v-500h311v-149h-311v-477z" />
<glyph unicode="&#xd1;" horiz-adv-x="1406" d="M174 0v1425h283l565 -1241h47v1241h156v-1425h-277l-571 1241h-45v-1241h-158zM358 1794q104 111 189 111q55 0 164.5 -50.5t136.5 -50.5q45 0 143 82l35 -119q-94 -104 -176 -104q-49 0 -162 51t-141 51q-49 0 -152 -88z" />
<glyph unicode="&#xd2;" horiz-adv-x="1343" d="M111 705q0 375 123.5 558t437 183t436.5 -182.5t123 -558.5q0 -383 -121 -554t-438.5 -171t-439 174t-121.5 551zM274 705q0 -305 81 -440.5t316.5 -135.5t316.5 132t81 444q0 303 -84 447t-313 144q-231 0 -314.5 -142t-83.5 -449zM403 1774l58 141l446 -193l-51 -127z " />
<glyph unicode="&#xd3;" horiz-adv-x="1343" d="M111 705q0 375 123.5 558t437 183t436.5 -182.5t123 -558.5q0 -383 -121 -554t-438.5 -171t-439 174t-121.5 551zM274 705q0 -305 81 -440.5t316.5 -135.5t316.5 132t81 444q0 303 -84 447t-313 144q-231 0 -314.5 -142t-83.5 -449zM410 1751l446 195l55 -144l-450 -176z " />
<glyph unicode="&#xd4;" horiz-adv-x="1343" d="M111 705q0 375 123.5 558t437 183t436.5 -182.5t123 -558.5q0 -383 -121 -554t-438.5 -171t-439 174t-121.5 551zM274 705q0 -305 81 -440.5t316.5 -135.5t316.5 132t81 444q0 303 -84 447t-313 144q-231 0 -314.5 -142t-83.5 -449zM354 1622l256 303h123l258 -303h-170 l-147 172l-150 -172h-170z" />
<glyph unicode="&#xd5;" horiz-adv-x="1343" d="M111 704.5q0 374.5 123.5 558t437 183.5t437.5 -182.5t124 -558.5q0 -383 -122 -554t-439.5 -171t-439 175t-121.5 549.5zM274 705q0 -305 81 -440.5t316.5 -135.5t316.5 132t81 444q0 305 -84 448t-313 143q-231 0 -314.5 -142t-83.5 -449zM330 1794q104 111 188 111 q55 0 165 -50.5t136 -50.5q45 0 144 82l34 -119q-94 -104 -176 -104q-49 0 -161.5 51t-141.5 51q-49 0 -151 -88z" />
<glyph unicode="&#xd6;" horiz-adv-x="1343" d="M111 704.5q0 374.5 123.5 558t437 183.5t437.5 -182.5t124 -558.5q0 -383 -122 -554t-439.5 -171t-439 175t-121.5 549.5zM274 705q0 -305 81 -440.5t316.5 -135.5t316.5 132t81 444q0 305 -84 448t-313 143q-231 0 -314.5 -142t-83.5 -449zM385 1690v184h147v-184h-147z M797 1690v184h147v-184h-147z" />
<glyph unicode="&#xd7;" horiz-adv-x="1458" d="M373 150l389 401l-385 399l102 99l383 -396l385 396l105 -99l-387 -399l389 -401l-103 -99l-389 398l-387 -398z" />
<glyph unicode="&#xd8;" horiz-adv-x="1333" d="M106 705q0 375 124 558t438 183q137 0 247 -39l109 233l143 -55l-120 -258q180 -164 180 -622q0 -383 -121 -554t-438 -171q-131 0 -236 32l-119 -254l-139 62l123 262q-191 152 -191 623zM270 705q0 -344 101 -465l477 1024q-72 33 -180 32q-231 0 -314.5 -142 t-83.5 -449zM498 154q72 -25 170 -25q236 0 316.5 132t80.5 444q0 330 -94 460z" />
<glyph unicode="&#xd9;" horiz-adv-x="1310" d="M160 430v995h157v-995q0 -297 332 -297q170 0 258 68.5t88 228.5v995h156v-995q0 -236 -126 -342t-376 -106q-242 0 -365.5 105t-123.5 343zM264 1774l58 141l446 -193l-51 -127z" />
<glyph unicode="&#xda;" horiz-adv-x="1314" d="M164 430v995h158v-995q0 -297 331 -297q170 0 258 68.5t88 228.5v995h156v-995q0 -236 -126 -342t-376 -106q-242 0 -365.5 105t-123.5 343zM399 1751l447 195l55 -144l-450 -176z" />
<glyph unicode="&#xdb;" horiz-adv-x="1314" d="M164 430v995h158v-995q0 -297 331 -297q170 0 258 68.5t88 228.5v995h156v-995q0 -236 -126 -342t-376 -106q-242 0 -365.5 105t-123.5 343zM344 1622l256 303h123l258 -303h-170l-147 172l-150 -172h-170z" />
<glyph unicode="&#xdc;" horiz-adv-x="1314" d="M164 430v995h158v-995q0 -297 331 -297q170 0 258 68.5t88 228.5v995h156v-995q0 -236 -126 -342t-376 -106q-242 0 -365.5 105t-123.5 343zM418 1690v184h147v-184h-147zM827 1690v184h150v-184h-150z" />
<glyph unicode="&#xdd;" horiz-adv-x="1105" d="M27 1425h176l352 -639l348 639h176l-444 -815v-610h-158v612zM279 1751l446 195l55 -144l-450 -176z" />
<glyph unicode="&#xde;" horiz-adv-x="1189" d="M145 0v1425h156v-229h363q231 0 341.5 -111.5t110.5 -345.5q0 -238 -112.5 -364.5t-339.5 -126.5h-363v-248h-156zM301 399h361q295 0 294 340q0 158 -70.5 231.5t-223.5 73.5h-361v-645z" />
<glyph unicode="&#xdf;" horiz-adv-x="1239" d="M178 0v1116q0 205 95.5 289t308.5 84q215 0 306 -67.5t91 -225.5q0 -197 -156 -262q-82 -33 -107.5 -51.5t-25.5 -46.5q0 -27 30 -51.5t150 -90.5q160 -86 213.5 -134t53.5 -130q0 -252 -101.5 -350t-386.5 -98q-31 0 -79 6t-81 12l-32 6l8 127q150 -8 184 -8 q199 0 263.5 63.5t64.5 225.5q0 31 -47 66.5t-176 103.5q-139 68 -181.5 116t-42.5 123q0 74 39 116t131 81q74 31 96.5 68.5t22.5 99.5q0 90 -53 126t-184 36t-189.5 -52.5t-58.5 -199.5v-1098h-156z" />
<glyph unicode="&#xe0;" horiz-adv-x="1075" d="M84 293q0 145 76 217t235 86l324 31v84q0 186 -178 186l-391 -27l-7 134q246 41 404 40q164 0 243.5 -80.5t79.5 -252.5v-504q4 -80 119 -94l-6 -133q-166 0 -242 77q-184 -78 -379 -77q-133 0 -205.5 81.5t-72.5 231.5zM240 297q0 -88 37.5 -136t107.5 -48t153 15 t132 32l49 14v328l-303 -25q-176 -16 -176 -180zM240 1399l53 135l446 -193l-49 -118z" />
<glyph unicode="&#xe1;" horiz-adv-x="1075" d="M84 293q0 145 76 217t235 86l324 31v84q0 186 -178 186l-391 -27l-7 134q246 41 404 40q164 0 243.5 -80.5t79.5 -252.5v-504q4 -80 119 -94l-6 -133q-166 0 -242 77q-184 -78 -379 -77q-133 0 -205.5 81.5t-72.5 231.5zM240 297q0 -88 37.5 -136t107.5 -48t153 15 t132 32l49 14v328l-303 -25q-176 -16 -176 -180zM244 1341l446 195l55 -143l-450 -176z" />
<glyph unicode="&#xe2;" horiz-adv-x="1075" d="M84 293q0 145 76 217t235 86l324 31v84q0 186 -178 186l-391 -27l-7 134q246 41 404 40q164 0 243.5 -80.5t79.5 -252.5v-504q4 -80 119 -94l-6 -133q-166 0 -242 77q-184 -78 -379 -77q-133 0 -205.5 81.5t-72.5 231.5zM184 1212l256 304h123l258 -304h-170l-147 172 l-150 -172h-170zM240 297q0 -88 37.5 -136t107.5 -48t153 15t132 32l49 14v328l-303 -25q-176 -16 -176 -180z" />
<glyph unicode="&#xe3;" horiz-adv-x="1075" d="M84 293q0 145 76 217t237 86l322 31v84q0 186 -178 186l-391 -27l-7 134q246 41 406 40q164 0 243.5 -80.5t79.5 -252.5v-504q2 -80 117 -94l-4 -133q-168 0 -244 77q-182 -78 -379 -77q-133 0 -205.5 81.5t-72.5 231.5zM160 1384q104 111 188 111q55 0 165 -50t136 -50 q45 0 144 82l34 -119q-94 -104 -176 -105q-49 0 -161.5 51.5t-141.5 51.5q-49 0 -151 -88zM242 297q0 -88 37.5 -136t107.5 -48q68 0 151 15t132 32l49 14v328l-303 -25q-174 -16 -174 -180z" />
<glyph unicode="&#xe4;" horiz-adv-x="1075" d="M84 293q0 145 76 217t237 86l322 31v84q0 186 -178 186l-391 -27l-7 134q246 41 406 40q164 0 243.5 -80.5t79.5 -252.5v-504q2 -80 117 -94l-4 -133q-168 0 -244 77q-182 -78 -379 -77q-133 0 -205.5 81.5t-72.5 231.5zM236 1280v184h147v-184h-147zM242 297 q0 -88 37.5 -136t107.5 -48q68 0 151 15t132 32l49 14v328l-303 -25q-174 -16 -174 -180zM645 1280v184h150v-184h-150z" />
<glyph unicode="&#xe5;" horiz-adv-x="1075" d="M84 293q0 145 76 217t235 86l324 31v84q0 186 -178 186l-391 -27l-7 134q246 41 404 40q164 0 243.5 -80.5t79.5 -252.5v-504q4 -80 119 -94l-6 -133q-166 0 -242 77q-184 -78 -379 -77q-133 0 -205.5 81.5t-72.5 231.5zM240 297q0 -88 37.5 -136t107.5 -48t153 15 t132 32l49 14v328l-303 -25q-176 -16 -176 -180zM311 1321q0 90 61.5 151.5t151.5 61.5q88 0 149.5 -61.5t61.5 -151.5t-60.5 -151.5t-150.5 -61.5t-151.5 61.5t-61.5 151.5zM424 1321q0 -43 28.5 -73.5t71.5 -30.5t72 30.5t29 73.5t-29 72.5t-72 29.5t-71.5 -29.5 t-28.5 -72.5z" />
<glyph unicode="&#xe6;" horiz-adv-x="1695" d="M111 293q0 164 82.5 226.5t285.5 82.5l264 25v84q0 186 -176 186q-68 0 -165 -5t-160 -11l-66 -4l-4 137q244 31 401 30q209 0 277 -149q98 150 319 149q207 0 310.5 -115.5t103.5 -363.5l-8 -119h-678q0 -168 61.5 -247.5t208.5 -79.5q68 0 161 5t155 9l59 4l4 -125 q-231 -33 -397 -32q-207 0 -301 110l-66 -29q-190 -82 -393 -81q-137 0 -207.5 80.5t-70.5 232.5zM266 297q0 -184 146 -184q94 0 215 29.5t151 45.5q-37 104 -37 314l-301 -25q-90 -8 -132 -51t-42 -129zM897 571h533q0 182 -61.5 259t-199.5 77q-135 0 -203.5 -80 t-68.5 -256z" />
<glyph unicode="&#xe7;" horiz-adv-x="894" d="M102 530q0 279 97.5 396.5t326.5 117.5q41 0 111 -8t119 -16l49 -6l-4 -133q-164 18 -242 18q-174 0 -236.5 -81t-62.5 -288q0 -233 58.5 -320t240.5 -87l244 18l6 -133q-180 -27 -274 -28v-80q121 0 175 -33t54 -127q0 -184 -193 -184q-41 0 -85 3t-68 7l-23 4l6 98 q80 -6 136 -6q90 0 90 78q0 70 -90 70h-86v174q-197 14 -273 137.5t-76 408.5z" />
<glyph unicode="&#xe8;" horiz-adv-x="1030" d="M100 506q0 539 430 538q207 0 309.5 -115.5t102.5 -363.5l-8 -119h-678q2 -168 62.5 -247.5t207.5 -79.5q68 0 162 5t154 9l59 4l4 -125q-231 -33 -397 -32q-223 0 -315.5 128t-92.5 398zM227 1384l54 136l446 -193l-49 -119zM256 571h532q0 182 -61 259t-197 77 q-274 0 -274 -336z" />
<glyph unicode="&#xe9;" horiz-adv-x="1030" d="M100 506q0 539 430 538q207 0 309.5 -115.5t102.5 -363.5l-8 -119h-678q2 -168 62.5 -247.5t207.5 -79.5q68 0 162 5t154 9l59 4l4 -125q-231 -33 -397 -32q-223 0 -315.5 128t-92.5 398zM256 571h532q0 182 -61 259t-197 77q-274 0 -274 -336zM305 1341l447 195l55 -143 l-451 -176z" />
<glyph unicode="&#xea;" horiz-adv-x="1030" d="M100 506q0 539 430 538q207 0 309.5 -115.5t102.5 -363.5l-8 -119h-678q2 -168 62.5 -247.5t207.5 -79.5q68 0 162 5t154 9l59 4l4 -125q-231 -33 -397 -32q-223 0 -315.5 128t-92.5 398zM225 1212l256 304h123l258 -304h-170l-147 172l-150 -172h-170zM256 571h532 q0 182 -61 259t-197 77q-274 0 -274 -336z" />
<glyph unicode="&#xeb;" horiz-adv-x="1030" d="M100 506q0 539 430 538q207 0 309.5 -115.5t102.5 -363.5l-8 -119h-678q2 -168 63.5 -247.5t206.5 -79.5q68 0 162 5t154 9l59 4l4 -125q-231 -33 -397 -32q-223 0 -315.5 128t-92.5 398zM246 1280v184h149v-184h-149zM256 571h532q0 182 -61 259t-197 77 q-274 0 -274 -336zM657 1280v184h148v-184h-148z" />
<glyph unicode="&#xec;" horiz-adv-x="534" d="M10 1399l53 135l447 -193l-49 -118zM195 0v1024h151v-1024h-151z" />
<glyph unicode="&#xed;" horiz-adv-x="534" d="M70 1341l446 195l55 -143l-450 -176zM195 0v1024h151v-1024h-151z" />
<glyph unicode="&#xee;" horiz-adv-x="540" d="M-51 1212l256 304h123l258 -304h-170l-148 172l-149 -172h-170zM195 0v1024h151v-1024h-151z" />
<glyph unicode="&#xef;" horiz-adv-x="534" d="M-16 1280v184h147v-184h-147zM195 0v1024h151v-1024h-151zM393 1280v184h148v-184h-148z" />
<glyph unicode="&#xf0;" d="M82 455q0 195 116.5 310.5t313.5 115.5q68 0 152 -18.5t135 -35.5l49 -18q-12 272 -301 420l-228 -164l-67 96l170 123q-102 37 -229 68l30 129q207 -43 334 -99l203 146l69 -96l-153 -111q336 -199 336 -600q0 -397 -110.5 -568t-362.5 -171q-217 0 -337 122t-120 351z M244 455q0 -158 74.5 -244t220.5 -86q166 0 237.5 122t73.5 423q-182 74 -330 73q-127 0 -201.5 -80.5t-74.5 -207.5z" />
<glyph unicode="&#xf1;" horiz-adv-x="1173" d="M186 0v1024h154v-68q172 88 317 88q205 0 274.5 -111.5t69.5 -400.5v-532h-151v530q0 215 -41 294t-176 79t-293 -76v-827h-154zM268 1384q104 111 189 111q55 0 164.5 -50t136.5 -50q45 0 143 82l35 -119q-94 -104 -176 -105q-49 0 -162 51.5t-141 51.5q-49 0 -152 -88z " />
<glyph unicode="&#xf2;" horiz-adv-x="1081" d="M102 526q0 270 101.5 394t339.5 124q229 0 332.5 -128t103.5 -394q0 -281 -94 -411.5t-342 -130.5q-252 0 -346.5 126.5t-94.5 419.5zM260 526q0 -229 55.5 -319t227.5 -90q170 0 224 92t54 313q0 205 -65.5 294t-212.5 89q-162 0 -222.5 -83t-60.5 -296zM287 1399 l53 135l446 -193l-49 -118z" />
<glyph unicode="&#xf3;" horiz-adv-x="1081" d="M102 526q0 270 101.5 394t339.5 124q229 0 332.5 -128t103.5 -394q0 -281 -94 -411.5t-342 -130.5q-252 0 -346.5 126.5t-94.5 419.5zM260 526q0 -229 55.5 -319t227.5 -90q170 0 224 92t54 313q0 205 -65.5 294t-212.5 89q-162 0 -222.5 -83t-60.5 -296zM299 1341 l446 195l56 -143l-451 -176z" />
<glyph unicode="&#xf4;" horiz-adv-x="1081" d="M102 526q0 270 101.5 394t339.5 124q229 0 332.5 -128t103.5 -394q0 -281 -94 -411.5t-342 -130.5q-252 0 -346.5 126.5t-94.5 419.5zM217 1212l256 304h123l258 -304h-170l-147 172l-150 -172h-170zM260 526q0 -229 55.5 -319t227.5 -90q170 0 224 92t54 313 q0 205 -65.5 294t-212.5 89q-162 0 -222.5 -83t-60.5 -296z" />
<glyph unicode="&#xf5;" horiz-adv-x="1081" d="M102 526q0 270 101.5 394t339.5 124q229 0 332.5 -128t103.5 -394q0 -281 -94 -411.5t-342 -130.5q-252 0 -346.5 126.5t-94.5 419.5zM203 1384q104 111 188 111q55 0 165 -50t136 -50q43 0 144 82l34 -119q-94 -104 -176 -105q-49 0 -161.5 51.5t-141.5 51.5 q-49 0 -151 -88zM260 526q0 -229 55.5 -319t227.5 -90q170 0 224 92t54 313q0 205 -65.5 294t-212.5 89q-162 0 -222.5 -83t-60.5 -296z" />
<glyph unicode="&#xf6;" horiz-adv-x="1081" d="M102 526q0 270 101.5 394t339.5 124q229 0 332.5 -128t103.5 -394q0 -281 -94 -411.5t-342 -130.5q-252 0 -346.5 126.5t-94.5 419.5zM254 1280v184h149v-184h-149zM260 526q0 -229 55.5 -319t227.5 -90q170 0 224 92t54 313q0 205 -65.5 294t-212.5 89 q-162 0 -222.5 -83t-60.5 -296zM666 1280v184h147v-184h-147z" />
<glyph unicode="&#xf7;" d="M205 739v154h26v86h463v-86h33v-154h-522zM387 209v207h158v-207h-158z" />
<glyph unicode="&#xf8;" horiz-adv-x="1081" d="M102 526q0 270 101.5 394t339.5 124q78 0 149 -16l86 213l105 -39l-90 -215q186 -109 186 -465q0 -281 -94 -411.5t-342 -130.5q-86 0 -158 16l-90 -225l-102 36l90 226q-98 55 -139.5 173.5t-41.5 319.5zM260 526q0 -145 18.5 -229t67.5 -127l293 723q-43 12 -96 12 q-162 0 -222.5 -83t-60.5 -296zM436 127q39 -10 107 -10q170 0 224 92t54 313q0 238 -92 322z" />
<glyph unicode="&#xf9;" horiz-adv-x="1144" d="M164 489v535h151v-532q0 -223 39 -299t178 -76q59 0 130 19.5t112 37.5l39 19v831h152v-1024h-152v66q-160 -86 -303 -86q-209 0 -277.5 108t-68.5 401zM252 1393l59 141l447 -195l-58 -133z" />
<glyph unicode="&#xfa;" horiz-adv-x="1144" d="M164 489v535h151v-532q0 -223 39 -299t178 -76q59 0 130 19.5t112 37.5l39 19v831h152v-1024h-152v66q-160 -86 -303 -86q-209 0 -277.5 108t-68.5 401zM326 1341l446 195l55 -143l-450 -176z" />
<glyph unicode="&#xfb;" horiz-adv-x="1144" d="M164 489v535h151v-532q0 -223 39 -299t178 -76q59 0 130 19.5t112 37.5l39 19v831h152v-1024h-152v66q-160 -86 -303 -86q-209 0 -277.5 108t-68.5 401zM229 1212l256 304h123l258 -304h-170l-147 172l-150 -172h-170z" />
<glyph unicode="&#xfc;" horiz-adv-x="1144" d="M164 489v535h151v-532q0 -223 39 -299t178 -76q59 0 130 19.5t112 37.5l39 19v831h152v-1024h-152v66q-160 -86 -303 -86q-209 0 -277.5 108t-68.5 401zM301 1280v184h148v-184h-148zM711 1280v184h149v-184h-149z" />
<glyph unicode="&#xfd;" horiz-adv-x="983" d="M35 1024h153l256 -877h70l256 877h154l-426 -1479h-154l131 455h-149zM283 1341l446 195l55 -143l-450 -176z" />
<glyph unicode="&#xfe;" horiz-adv-x="1101" d="M233 -455v1925h152v-493q156 68 301 67q207 0 291 -117.5t84 -396.5q0 -307 -104.5 -428.5t-381.5 -121.5q-94 0 -190 10v-445h-152zM385 129q135 -12 190 -12q201 0 264.5 91t63.5 318q0 205 -50 291t-181 86q-61 0 -133 -13t-113 -28l-41 -14v-719z" />
<glyph unicode="&#xff;" horiz-adv-x="987" d="M49 1024h154l256 -877h69l256 877h154l-426 -1479h-154l131 455h-149zM213 1280v184h147v-184h-147zM623 1280v184h149v-184h-149z" />
<glyph unicode="&#x100;" horiz-adv-x="1236" d="M59 0l390 1425h346l383 -1423h-156l-109 356h-594l-102 -358h-158zM287 1671v135h637v-135h-637zM356 510h525l-211 770h-103z" />
<glyph unicode="&#x101;" horiz-adv-x="1069" d="M100 293q0 145 76 217t236 86l323 31v84q0 186 -178 186l-391 -27l-6 134q246 41 403 40q164 0 244 -80.5t80 -252.5v-504q4 -80 119 -94l-7 -133q-166 0 -241 77q-184 -78 -379 -77q-133 0 -206 81.5t-73 231.5zM229 1298v136h596v-136h-596zM256 297q0 -88 38 -136 t107.5 -48t152.5 15t132 32l49 14v328l-303 -25q-176 -16 -176 -180z" />
<glyph unicode="&#x102;" horiz-adv-x="1236" d="M59 0l390 1425h346l383 -1423h-156l-109 356h-594l-102 -358h-158zM297 1896h156q2 -63 49 -101t116.5 -38t116.5 38t49 101h158q-6 -123 -94 -196.5t-229.5 -73.5t-228.5 73.5t-93 196.5zM356 510h525l-211 770h-103z" />
<glyph unicode="&#x103;" horiz-adv-x="1069" d="M100 293q0 145 76 217t236 86l323 31v84q0 186 -178 186l-391 -27l-6 134q246 41 403 40q164 0 244 -80.5t80 -252.5v-504q4 -80 119 -94l-7 -133q-166 0 -241 77q-184 -78 -379 -77q-133 0 -206 81.5t-73 231.5zM207 1501h155q4 -70 49.5 -111.5t123.5 -41.5 q80 0 123.5 41t48.5 112h155q-6 -129 -92 -210t-235.5 -81t-235.5 81t-92 210zM256 297q0 -88 38 -136t107.5 -48t152.5 15t132 32l49 14v328l-303 -25q-176 -16 -176 -180z" />
<glyph unicode="&#x104;" horiz-adv-x="1236" d="M59 0l390 1425h346l383 -1423h-9q-141 -139 -141 -207q0 -35 19.5 -58.5t54.5 -23.5l100 11l15 -127q-92 -18 -162 -19q-82 0 -135.5 48t-53.5 130q0 113 156 246l-109 356h-594l-102 -358h-158zM356 510h525l-211 770h-103z" />
<glyph unicode="&#x105;" horiz-adv-x="1069" d="M100 293q0 145 76 217t236 86l323 31v84q0 186 -178 186l-391 -27l-6 134q246 41 403 40q164 0 244 -80.5t80 -252.5v-504q4 -80 119 -94l-7 -133q-43 0 -61 2q-121 -121 -121 -187q0 -35 19.5 -58.5t54.5 -23.5l100 11l15 -127q-92 -18 -162 -19q-82 0 -135.5 48 t-53.5 130q0 70 58.5 143.5t105.5 110.5q-35 16 -61 47q-184 -78 -379 -77q-133 0 -206 81.5t-73 231.5zM256 297q0 -88 38 -136t107.5 -48t152.5 15t132 32l49 14v328l-303 -25q-176 -16 -176 -180z" />
<glyph unicode="&#x106;" horiz-adv-x="1093" d="M104 709q0 385 110 561t409 176q82 0 180 -12.5t155 -24.5l56 -10l-8 -142q-223 35 -367 35q-225 0 -299 -133t-74 -450q0 -313 74 -444.5t303 -131.5q57 0 147.5 9.5t151.5 17.5l64 10l6 -143q-227 -47 -389 -47q-156 0 -259.5 46t-160 144t-78 225.5t-21.5 313.5z M344 1731l447 194l55 -143l-451 -176z" />
<glyph unicode="&#x107;" horiz-adv-x="894" d="M102 530q0 279 97.5 396.5t326.5 117.5q41 0 111 -8t119 -16l49 -6l-4 -133q-164 18 -242 18q-174 0 -236.5 -81t-62.5 -288q0 -233 58.5 -320t240.5 -87l244 18l6 -133q-193 -29 -285 -28q-242 0 -332 121.5t-90 428.5zM242 1341l446 195l55 -143l-450 -176z" />
<glyph unicode="&#x108;" horiz-adv-x="1093" d="M104 709q0 385 110 561t409 176q82 0 180 -12.5t155 -24.5l56 -10l-8 -142q-223 35 -367 35q-225 0 -299 -133t-74 -450q0 -313 74 -444.5t303 -131.5q57 0 147.5 9.5t151.5 17.5l64 10l6 -143q-227 -47 -389 -47q-156 0 -259.5 46t-160 144t-78 225.5t-21.5 313.5z M279 1630l272 277h137l273 -277h-179l-161 154l-160 -154h-182z" />
<glyph unicode="&#x109;" horiz-adv-x="894" d="M102 530q0 279 97.5 396.5t326.5 117.5q41 0 111 -8t119 -16l49 -6l-4 -133q-164 18 -242 18q-174 0 -236.5 -81t-62.5 -288q0 -233 58.5 -320t240.5 -87l244 18l6 -133q-193 -29 -285 -28q-242 0 -332 121.5t-90 428.5zM156 1212l256 304h123l258 -304h-170l-148 172 l-149 -172h-170z" />
<glyph unicode="&#x10a;" horiz-adv-x="1093" d="M104 709q0 385 110 561t409 176q82 0 180 -12.5t155 -24.5l56 -10l-8 -142q-223 35 -367 35q-225 0 -299 -133t-74 -450q0 -313 74 -444.5t303 -131.5q57 0 147.5 9.5t151.5 17.5l64 10l6 -143q-227 -47 -389 -47q-156 0 -259.5 46t-160 144t-78 225.5t-21.5 313.5z M518 1675v178h154v-178h-154z" />
<glyph unicode="&#x10b;" horiz-adv-x="894" d="M102 530q0 279 97.5 396.5t326.5 117.5q41 0 111 -8t119 -16l49 -6l-4 -133q-164 18 -242 18q-174 0 -236.5 -81t-62.5 -288q0 -233 58.5 -320t240.5 -87l244 18l6 -133q-193 -29 -285 -28q-242 0 -332 121.5t-90 428.5zM412 1247v178h153v-178h-153z" />
<glyph unicode="&#x10c;" horiz-adv-x="1093" d="M104 709q0 385 110 561t409 176q82 0 180 -12.5t155 -24.5l56 -10l-8 -142q-223 35 -367 35q-225 0 -299 -133t-74 -450q0 -313 74 -444.5t303 -131.5q57 0 147.5 9.5t151.5 17.5l64 10l6 -143q-227 -47 -389 -47q-156 0 -259.5 46t-160 144t-78 225.5t-21.5 313.5z M264 1909h182l160 -156l162 156h178l-272 -275h-135z" />
<glyph unicode="&#x10d;" horiz-adv-x="894" d="M102 530q0 279 97.5 396.5t326.5 117.5q41 0 111 -8t119 -16l49 -6l-4 -133q-164 18 -242 18q-174 0 -236.5 -81t-62.5 -288q0 -233 58.5 -320t240.5 -87l244 18l6 -133q-193 -29 -285 -28q-242 0 -332 121.5t-90 428.5zM172 1516h170l150 -170l147 170h170l-256 -304 h-127z" />
<glyph unicode="&#x10e;" horiz-adv-x="1314" d="M184 0v1425h506q289 0 406.5 -180t117.5 -510q0 -164 -24.5 -288.5t-80.5 -229t-161.5 -161t-257.5 -56.5h-506zM272 1909h183l159 -156l162 156h178l-272 -275h-135zM340 150h350q360 0 361 585q0 121 -15.5 212t-54.5 169t-111.5 119t-179.5 41h-350v-1126z" />
<glyph unicode="&#x10f;" horiz-adv-x="1501" d="M102 508q0 276 99.5 406t328.5 130q117 0 250 -26v416h154v-1434h-154v68q-158 -88 -311 -88q-82 0 -142.5 21.5t-114.5 75.5t-82 162.5t-28 268.5zM256 504q0 -119 18.5 -198t54.5 -116.5t72.5 -53t87.5 -15.5q61 0 134 19.5t114 37.5l43 19v686q-170 23 -241 22 q-156 0 -219.5 -96t-63.5 -305zM1184 946v479h147v-479h-147z" />
<glyph unicode="&#x110;" horiz-adv-x="1314" d="M45 637v149h139v639h506q289 0 406.5 -180t117.5 -510q0 -164 -24.5 -288.5t-80.5 -229t-161.5 -161t-257.5 -56.5h-506v637h-139zM340 150h350q360 0 361 585q0 121 -15.5 212t-54.5 169t-111.5 119t-179.5 41h-350v-490h324v-149h-324v-487z" />
<glyph unicode="&#x111;" horiz-adv-x="1107" d="M102 508q0 276 99.5 406t328.5 130q117 0 250 -26v256h-395v135h395v25h154v-25h47v-135h-47v-1274h-154v68q-158 -88 -311 -88q-82 0 -142.5 21.5t-114.5 75.5t-82 162.5t-28 268.5zM256 504q0 -119 18.5 -198t54.5 -116.5t72.5 -53t87.5 -15.5q61 0 134 19.5t114 37.5 l43 19v686q-170 23 -241 22q-156 0 -219.5 -96t-63.5 -305z" />
<glyph unicode="&#x112;" horiz-adv-x="1155" d="M184 0v1425h860v-149h-704v-481h582v-148h-582v-497h704v-150h-860zM291 1679v136h637v-136h-637z" />
<glyph unicode="&#x113;" horiz-adv-x="1038" d="M102 506q0 539 430 538q207 0 309.5 -115.5t102.5 -363.5l-8 -119h-678q2 -168 62.5 -247.5t207.5 -79.5q68 0 162 5t154 9l59 4l4 -125q-231 -33 -397 -32q-223 0 -315.5 128t-92.5 398zM233 1298v136h596v-136h-596zM258 571h533q0 182 -61.5 259t-197.5 77 q-274 0 -274 -336z" />
<glyph unicode="&#x114;" horiz-adv-x="1155" d="M184 0v1425h860v-149h-704v-481h582v-148h-582v-497h704v-150h-860zM309 1896h156q2 -63 49 -100t116.5 -37t117 37t49.5 100h157q-6 -121 -94 -194.5t-229.5 -73.5t-228.5 73.5t-93 194.5z" />
<glyph unicode="&#x115;" horiz-adv-x="1038" d="M102 506q0 539 430 538q207 0 309.5 -115.5t102.5 -363.5l-8 -119h-678q2 -168 62.5 -247.5t207.5 -79.5q68 0 162 5t154 9l59 4l4 -125q-231 -33 -397 -32q-223 0 -315.5 128t-92.5 398zM201 1501h157q4 -70 48.5 -111.5t121.5 -41.5q80 0 125 42t47 111h158 q-6 -129 -93 -210t-237 -81q-147 0 -234 81t-93 210zM258 571h533q0 182 -61.5 259t-197.5 77q-274 0 -274 -336z" />
<glyph unicode="&#x116;" horiz-adv-x="1155" d="M184 0v1425h860v-149h-704v-481h582v-148h-582v-497h704v-150h-860zM541 1675v178h153v-178h-153z" />
<glyph unicode="&#x117;" horiz-adv-x="1038" d="M102 506q0 539 430 538q207 0 309.5 -115.5t102.5 -363.5l-8 -119h-678q2 -168 62.5 -247.5t207.5 -79.5q68 0 162 5t154 9l59 4l4 -125q-231 -33 -397 -32q-223 0 -315.5 128t-92.5 398zM258 571h533q0 182 -61.5 259t-197.5 77q-274 0 -274 -336zM442 1247v178h154 v-178h-154z" />
<glyph unicode="&#x118;" horiz-adv-x="1155" d="M184 0v1425h860v-149h-704v-481h582v-148h-582v-497h704v-150h-51q-139 -139 -139 -205q0 -35 19.5 -58.5t54.5 -23.5l100 11l14 -127q-92 -18 -161 -19q-82 0 -135.5 48t-53.5 130q0 63 50.5 131t101.5 113h-660z" />
<glyph unicode="&#x119;" horiz-adv-x="1038" d="M102 506q0 539 430 538q207 0 309.5 -115.5t102.5 -363.5l-8 -119h-678q2 -168 62.5 -247.5t207.5 -79.5q68 0 162 5t154 9l59 4l4 -125q-25 -4 -53 -8q-139 -139 -139 -205q0 -35 19.5 -58.5t53.5 -23.5l101 11l14 -127q-92 -18 -162 -19q-82 0 -135 48t-53 130 q0 100 133 228q-119 -8 -176 -8q-223 0 -315.5 128t-92.5 398zM258 571h533q0 182 -61.5 259t-197.5 77q-274 0 -274 -336z" />
<glyph unicode="&#x11a;" horiz-adv-x="1155" d="M184 0v1425h860v-149h-704v-481h582v-148h-582v-497h704v-150h-860zM301 1923h182l160 -156l162 156h178l-272 -274h-136z" />
<glyph unicode="&#x11b;" horiz-adv-x="1038" d="M102 506q0 539 430 538q207 0 309.5 -115.5t102.5 -363.5l-8 -119h-678q2 -168 62.5 -247.5t207.5 -79.5q68 0 162 5t154 9l59 4l4 -125q-231 -33 -397 -32q-223 0 -315.5 128t-92.5 398zM201 1516h170l149 -170l148 170h170l-256 -304h-127zM258 571h533 q0 182 -61.5 259t-197.5 77q-274 0 -274 -336z" />
<glyph unicode="&#x11c;" horiz-adv-x="1245" d="M106 711q0 375 120 555t425 180q96 0 212 -13.5t186 -27.5l67 -12l-6 -142q-254 43 -440 43q-233 0 -316.5 -136t-83.5 -447q0 -309 82 -444.5t316 -135.5q35 0 75.5 3l77.5 6t68 7.5t50 7.5t22 3v426h-236v143h391v-698q-291 -49 -461 -49q-307 0 -428 180t-121 551z M311 1630l273 277h137l272 -277h-178l-162 154l-159 -154h-183z" />
<glyph unicode="&#x11d;" horiz-adv-x="1060" d="M96 -172q0 84 37 136t125 118q-55 37 -55 141q0 16 17.5 57.5t33.5 71.5l16 33q-160 74 -159 309q0 350 381 350l213 -26l299 6v-131h-185q63 -68 64 -199q0 -195 -94.5 -270.5t-303.5 -75.5q-55 0 -100 8q-37 -90 -37 -116q0 -63 39 -79t209 -16q225 0 311 -61t86 -240 q0 -334 -456 -333q-246 0 -343.5 67.5t-97.5 249.5zM213 1212l256 304h123l258 -304h-170l-148 172l-149 -172h-170zM248 -160q0 -109 60.5 -150.5t230.5 -41.5q156 0 227.5 45t71.5 145q0 111 -52.5 141.5t-199.5 30.5l-224 10q-66 -49 -90 -86t-24 -94zM264 694 q0 -115 48 -165t173 -50q131 0 187.5 48t56.5 167q0 129 -52 173t-188 44q-117 0 -171 -49t-54 -168z" />
<glyph unicode="&#x11e;" horiz-adv-x="1245" d="M106 711q0 375 120 555t425 180q96 0 212 -13.5t186 -27.5l67 -12l-6 -142q-254 43 -440 43q-233 0 -316.5 -136t-83.5 -447q0 -309 82 -444.5t316 -135.5q35 0 75.5 3l77.5 6t68 7.5t50 7.5t22 3v426h-236v143h391v-698q-291 -49 -461 -49q-307 0 -428 180t-121 551z M340 1896h158q2 -63 49 -101t116.5 -38t116.5 38t49 101h156q-6 -123 -93 -196.5t-228.5 -73.5t-229.5 73.5t-94 196.5z" />
<glyph unicode="&#x11f;" horiz-adv-x="1060" d="M96 -172q0 84 37 136t125 118q-55 37 -55 141q0 16 17.5 57.5t33.5 71.5l16 33q-160 74 -159 309q0 350 381 350l213 -26l299 6v-131h-185q63 -68 64 -199q0 -195 -94.5 -270.5t-303.5 -75.5q-55 0 -100 8q-37 -90 -37 -116q0 -63 39 -79t209 -16q225 0 311 -61t86 -240 q0 -334 -456 -333q-246 0 -343.5 67.5t-97.5 249.5zM201 1501h157q4 -70 49.5 -111.5t123 -41.5t122.5 42t49 111h156q-6 -129 -93 -210t-235 -81q-150 0 -236.5 81t-92.5 210zM248 -160q0 -109 60.5 -150.5t230.5 -41.5q156 0 227.5 45t71.5 145q0 111 -52.5 141.5 t-199.5 30.5l-224 10q-66 -49 -90 -86t-24 -94zM264 694q0 -115 48 -165t173 -50q131 0 187.5 48t56.5 167q0 129 -52 173t-188 44q-117 0 -171 -49t-54 -168z" />
<glyph unicode="&#x120;" horiz-adv-x="1245" d="M106 711q0 375 120 555t425 180q96 0 212 -13.5t186 -27.5l67 -12l-6 -142q-254 43 -440 43q-233 0 -316.5 -136t-83.5 -447q0 -309 82 -444.5t316 -135.5q35 0 75.5 3l77.5 6t68 7.5t50 7.5t22 3v426h-236v143h391v-698q-291 -49 -461 -49q-307 0 -428 180t-121 551z M555 1683v179h152v-179h-152z" />
<glyph unicode="&#x121;" horiz-adv-x="1060" d="M96 -172q0 84 37 136t125 118q-55 37 -55 141q0 16 17.5 57.5t33.5 71.5l16 33q-160 74 -159 309q0 350 381 350l213 -26l299 6v-131h-185q63 -68 64 -199q0 -195 -94.5 -270.5t-303.5 -75.5q-55 0 -100 8q-37 -90 -37 -116q0 -63 39 -79t209 -16q225 0 311 -61t86 -240 q0 -334 -456 -333q-246 0 -343.5 67.5t-97.5 249.5zM248 -160q0 -109 60.5 -150.5t230.5 -41.5q156 0 227.5 45t71.5 145q0 111 -52.5 141.5t-199.5 30.5l-224 10q-66 -49 -90 -86t-24 -94zM264 694q0 -115 48 -165t173 -50q131 0 187.5 48t56.5 167q0 129 -52 173t-188 44 q-117 0 -171 -49t-54 -168zM453 1247v178h153v-178h-153z" />
<glyph unicode="&#x122;" horiz-adv-x="1245" d="M106 711q0 375 120 555t425 180q96 0 212 -13.5t186 -27.5l67 -12l-6 -142q-254 43 -440 43q-233 0 -316.5 -136t-83.5 -447q0 -309 82 -444.5t316 -135.5q35 0 75.5 3l77.5 6t68 7.5t50 7.5t22 3v426h-236v143h391v-698q-291 -49 -461 -49q-307 0 -428 180t-121 551z M504 -584l84 424h151l-102 -424h-133z" />
<glyph unicode="&#x123;" horiz-adv-x="1060" d="M96 -172q0 84 37 136t125 118q-55 37 -55 141q0 16 17.5 57.5t33.5 71.5l16 33q-160 74 -159 309q0 350 381 350l213 -26l299 6v-131h-185q63 -68 64 -199q0 -195 -94.5 -270.5t-303.5 -75.5q-55 0 -100 8q-37 -90 -37 -116q0 -63 39 -79t209 -16q225 0 311 -61t86 -240 q0 -334 -456 -333q-246 0 -343.5 67.5t-97.5 249.5zM248 -160q0 -109 60.5 -150.5t230.5 -41.5q156 0 227.5 45t71.5 145q0 111 -52.5 141.5t-199.5 30.5l-224 10q-66 -49 -90 -86t-24 -94zM264 694q0 -115 48 -165t173 -50q131 0 187.5 48t56.5 167q0 129 -52 173t-188 44 q-117 0 -171 -49t-54 -168zM387 1206l102 424h134l-84 -424h-152z" />
<glyph unicode="&#x124;" horiz-adv-x="1398" d="M184 0v1425h158v-630h721v630h156v-1425h-156v643h-721v-643h-158zM362 1626l273 277h137l272 -277h-178l-161 154l-160 -154h-183z" />
<glyph unicode="&#x125;" horiz-adv-x="1157" d="M178 0v1495h154v-520q172 70 315 69q207 0 276.5 -111.5t69.5 -397.5v-535h-153v532q0 213 -41 292t-174 79q-61 0 -134 -15.5t-116 -29.5l-43 -14v-844h-154zM260 1585l256 303h123l258 -303h-170l-147 172l-150 -172h-170z" />
<glyph unicode="&#x126;" horiz-adv-x="1398" d="M33 1040v134h151v251h158v-251h721v251h156v-251h170v-134h-170v-1040h-156v643h-721v-643h-158v1040h-151zM342 795h721v245h-721v-245z" />
<glyph unicode="&#x127;" horiz-adv-x="1157" d="M51 1188v135h127v172h154v-172h315v-135h-315v-213q172 70 315 69q207 0 276.5 -111.5t69.5 -397.5v-535h-153v532q0 213 -41 292t-174 79q-61 0 -134 -15.5t-116 -29.5l-43 -14v-844h-154v1188h-127z" />
<glyph unicode="&#x128;" horiz-adv-x="505" d="M-100 1767q115 123 198 123q57 0 182.5 -56t149.5 -56q18 0 57 23.5t70 45.5l29 25l37 -119q-106 -119 -189 -119q-51 0 -178 57.5t-156 57.5q-23 0 -63.5 -24.5t-69.5 -49.5l-30 -26zM174 0v1425h158v-1425h-158z" />
<glyph unicode="&#x129;" horiz-adv-x="540" d="M-70 1384q104 111 189 111q55 0 164.5 -50t136.5 -50q43 0 143 82l35 -119q-94 -104 -176 -105q-49 0 -162 51.5t-141 51.5q-49 0 -152 -88zM195 0v1024h151v-1024h-151z" />
<glyph unicode="&#x12a;" horiz-adv-x="505" d="M-66 1700v135h637v-135h-637zM174 0v1425h158v-1425h-158z" />
<glyph unicode="&#x12b;" horiz-adv-x="540" d="M-27 1298v136h596v-136h-596zM195 0v1024h151v-1024h-151z" />
<glyph unicode="&#x12c;" horiz-adv-x="505" d="M-70 1896h158q2 -63 49 -101t115 -38q70 0 117 38t49 101h157q-6 -123 -94 -196.5t-229 -73.5t-228.5 73.5t-93.5 196.5zM174 0v1425h158v-1425h-158z" />
<glyph unicode="&#x12d;" horiz-adv-x="540" d="M-57 1501h155q4 -70 49.5 -111.5t122.5 -41.5q80 0 124 41t48 112h158q-6 -129 -93 -210t-237 -81q-147 0 -234 81t-93 210zM195 0v1024h151v-1024h-151z" />
<glyph unicode="&#x12e;" horiz-adv-x="505" d="M29 -244q0 63 50 131t101 113h-6v1425h158v-1425h-2q-139 -139 -140 -205q0 -35 19.5 -58.5t54.5 -23.5l101 11l14 -127q-92 -18 -162 -19q-82 0 -135 48t-53 130z" />
<glyph unicode="&#x12f;" horiz-adv-x="483" d="M-406 0v1024h152v-1024h-152zM-406 1255v179h152v-179h-152zM14 -244q0 53 42 119t85 105l43 36l133 -14q-141 -139 -141 -207q0 -35 19.5 -58.5t54.5 -23.5l100 11l15 -127q-92 -18 -162 -19q-82 0 -135.5 48t-53.5 130z" />
<glyph unicode="&#x130;" horiz-adv-x="505" d="M174 0v1425h158v-1425h-158zM176 1675v178h152v-178h-152z" />
<glyph unicode="&#x131;" horiz-adv-x="534" d="M195 0v1024h151v-1024h-151z" />
<glyph unicode="&#x134;" horiz-adv-x="630" d="M0 1626l272 277h138l272 -277h-178l-162 154l-160 -154h-182zM68 0q145 0 188 39t43 203v1185h156q0 -217 1 -601t1 -603q0 -127 -20.5 -201.5t-75 -111.5t-117 -47t-176.5 -10v147z" />
<glyph unicode="&#x135;" horiz-adv-x="507" d="M-66 -342q160 92 208 155.5t48 198.5v1012h152v-1014q0 -188 -67.5 -282.5t-272.5 -198.5zM-51 1212l256 304h123l258 -304h-170l-148 172l-149 -172h-170z" />
<glyph unicode="&#x136;" horiz-adv-x="1218" d="M184 0v1425h158v-657l231 8l363 649h182l-405 -712l428 -713h-187l-376 627l-236 -9v-618h-158zM481 -584l84 424h152l-103 -424h-133z" />
<glyph unicode="&#x137;" horiz-adv-x="1017" d="M178 0v1470h154v-858l157 9l306 403h172l-342 -471l348 -553h-174l-307 469l-160 -8v-461h-154zM381 -584l84 424h151l-102 -424h-133z" />
<glyph unicode="&#x139;" horiz-adv-x="1048" d="M184 0v1425h158v-1273h623v-152h-781zM276 1731l447 194l55 -143l-450 -176z" />
<glyph unicode="&#x13a;" horiz-adv-x="495" d="M-2 1759l446 195l56 -144l-451 -176zM172 0v1470h152v-1470h-152z" />
<glyph unicode="&#x13b;" horiz-adv-x="1050" d="M184 0v1425h158v-1273h623v-152h-781zM408 -584l84 424h151l-102 -424h-133z" />
<glyph unicode="&#x13c;" horiz-adv-x="495" d="M84 -584l84 424h151l-102 -424h-133zM172 0v1470h152v-1470h-152z" />
<glyph unicode="&#x13d;" horiz-adv-x="1050" d="M184 0v1425h158v-1273h623v-152h-781zM762 946v479h147v-479h-147z" />
<glyph unicode="&#x13e;" horiz-adv-x="884" d="M172 0v1470h152v-1470h-152zM573 946v479h148v-479h-148z" />
<glyph unicode="&#x141;" horiz-adv-x="1050" d="M-25 582l209 145v698h158v-587l338 237l78 -106l-416 -291v-526h623v-152h-781v567l-131 -92z" />
<glyph unicode="&#x142;" horiz-adv-x="591" d="M4 582l215 149v739h152v-632l151 106l78 -106l-229 -162v-676h-152v571l-137 -96z" />
<glyph unicode="&#x143;" horiz-adv-x="1419" d="M184 0v1425h283l565 -1241h45v1241h158v-1425h-277l-573 1241h-43v-1241h-158zM457 1731l446 194l55 -143l-450 -176z" />
<glyph unicode="&#x144;" horiz-adv-x="1163" d="M178 0v1024h154v-68q172 88 317 88q205 0 274.5 -111.5t69.5 -400.5v-532h-151v530q0 215 -41 294t-176 79t-293 -76v-827h-154zM332 1341l446 195l56 -143l-451 -176z" />
<glyph unicode="&#x145;" horiz-adv-x="1419" d="M184 0v1425h283l565 -1241h45v1241h158v-1425h-277l-573 1241h-43v-1241h-158zM590 -584l84 424h151l-102 -424h-133z" />
<glyph unicode="&#x146;" horiz-adv-x="1163" d="M178 0v1024h154v-68q172 88 317 88q205 0 274.5 -111.5t69.5 -400.5v-532h-151v530q0 215 -41 294t-176 79t-293 -76v-827h-154zM451 -584l84 424h151l-102 -424h-133z" />
<glyph unicode="&#x147;" horiz-adv-x="1419" d="M184 0v1425h283l565 -1241h45v1241h158v-1425h-277l-573 1241h-43v-1241h-158zM367 1903h182l160 -156l161 156h179l-273 -275h-135z" />
<glyph unicode="&#x148;" horiz-adv-x="1163" d="M178 0v1024h154v-68q172 88 317 88q205 0 274.5 -111.5t69.5 -400.5v-532h-151v530q0 215 -41 294t-176 79t-293 -76v-827h-154zM264 1516h170l150 -170l147 170h170l-256 -304h-127z" />
<glyph unicode="&#x14a;" horiz-adv-x="1419" d="M184 0v1425h283l565 -1241h45v1241h158v-1425v-16q0 -127 -20.5 -202t-75 -112t-116.5 -47t-177 -10v147q143 0 187 39t44 201h-119l-573 1241h-43v-1241h-158z" />
<glyph unicode="&#x14b;" horiz-adv-x="1163" d="M178 0v1024h154v-68q176 88 321 88q197 0 269.5 -117.5t72.5 -394.5v-536q0 -190 -63.5 -282.5t-265.5 -198.5l-66 129q154 88 198 151.5t44 196.5v538q0 205 -42 290t-169 85q-61 0 -136 -18.5t-118 -38.5l-45 -19v-829h-154z" />
<glyph unicode="&#x14c;" horiz-adv-x="1333" d="M106 705q0 375 124 558t437.5 183t436.5 -182.5t123 -558.5q0 -383 -121 -554t-438.5 -171t-439.5 174t-122 551zM270 705q0 -305 81 -440.5t316.5 -135.5t316.5 132t81 444q0 303 -84 447t-313 144q-231 0 -314.5 -142t-83.5 -449zM344 1692v135h637v-135h-637z" />
<glyph unicode="&#x14d;" horiz-adv-x="1081" d="M102 526q0 270 101.5 394t339.5 124q229 0 332.5 -128t103.5 -394q0 -281 -94 -411.5t-342 -130.5q-252 0 -346.5 126.5t-94.5 419.5zM242 1298v136h596v-136h-596zM260 526q0 -229 55.5 -319t227.5 -90q170 0 224 92t54 313q0 205 -65.5 294t-212.5 89 q-162 0 -222.5 -83t-60.5 -296z" />
<glyph unicode="&#x14e;" horiz-adv-x="1333" d="M106 705q0 375 124 558t437.5 183t436.5 -182.5t123 -558.5q0 -383 -121 -554t-438.5 -171t-439.5 174t-122 551zM270 705q0 -305 81 -440.5t316.5 -135.5t316.5 132t81 444q0 303 -84 447t-313 144q-231 0 -314.5 -142t-83.5 -449zM344 1896h158q2 -63 49 -101 t116.5 -38t116.5 38t50 101h155q-6 -123 -93 -196.5t-228.5 -73.5t-229.5 73.5t-94 196.5z" />
<glyph unicode="&#x14f;" horiz-adv-x="1081" d="M102 526q0 270 101.5 394t339.5 124q229 0 332.5 -128t103.5 -394q0 -281 -94 -411.5t-342 -130.5q-252 0 -346.5 126.5t-94.5 419.5zM211 1501h158q4 -70 49 -111.5t122.5 -41.5t123 42t49.5 111h155q-6 -129 -93 -210t-234 -81q-150 0 -237 81t-93 210zM260 526 q0 -229 55.5 -319t227.5 -90q170 0 224 92t54 313q0 205 -65.5 294t-212.5 89q-162 0 -222.5 -83t-60.5 -296z" />
<glyph unicode="&#x150;" horiz-adv-x="1333" d="M106 705q0 375 124 558t437.5 183t436.5 -182.5t123 -558.5q0 -383 -121 -554t-438.5 -171t-439.5 174t-122 551zM270 705q0 -305 81 -440.5t316.5 -135.5t316.5 132t81 444q0 303 -84 447t-313 144q-231 0 -314.5 -142t-83.5 -449zM283 1649l290 270l119 -74l-297 -264z M694 1649l291 268l121 -74l-299 -264z" />
<glyph unicode="&#x151;" horiz-adv-x="1081" d="M102 526q0 270 101.5 394t339.5 124q229 0 332.5 -128t103.5 -394q0 -281 -94 -411.5t-342 -130.5q-252 0 -346.5 126.5t-94.5 419.5zM188 1278l297 283l111 -86l-303 -283zM260 526q0 -229 55.5 -319t227.5 -90q170 0 224 92t54 313q0 205 -65.5 294t-212.5 89 q-162 0 -222.5 -83t-60.5 -296zM584 1278l295 285l112 -88l-303 -283z" />
<glyph unicode="&#x152;" horiz-adv-x="1933" d="M123 707q0 387 118.5 563t424.5 176q162 0 288 -21h848v-151h-692v-469h569v-152h-569v-501h692v-154h-846q-184 -18 -290 -18q-313 0 -428 172t-115 555zM287 708.5q0 -317.5 78.5 -446.5t318.5 -129q102 0 270 14v1127q-215 18 -272 18q-231 0 -313 -133t-82 -450.5z " />
<glyph unicode="&#x153;" horiz-adv-x="1794" d="M121 526q0 270 101.5 394t338.5 124q270 0 359 -192q98 193 350 192q207 0 309 -115.5t102 -363.5l-8 -119h-678q2 -168 63.5 -247.5t207.5 -79.5q68 0 162 5t153 9l59 4l5 -125q-231 -33 -398 -32q-242 0 -334 170q-84 -170 -352 -170q-252 0 -346 126.5t-94 419.5z M279 526q0 -229 55 -319t227 -90q170 0 224.5 92t54.5 313q0 205 -65.5 294t-213.5 89q-162 0 -222 -83t-60 -296zM995 571h533q0 182 -61.5 259t-196.5 77q-275 0 -275 -336z" />
<glyph unicode="&#x154;" horiz-adv-x="1275" d="M184 0v1425h525q231 0 341.5 -103t110.5 -331q0 -332 -260 -411l273 -580h-175l-256 539h-401v-539h-158zM342 688h369q289 0 288 303q0 147 -70.5 216t-219.5 69h-367v-588zM387 1731l447 194l55 -143l-451 -176z" />
<glyph unicode="&#x155;" horiz-adv-x="729" d="M139 1341l447 195l55 -143l-451 -176zM178 0v1024h154v-135q158 119 356 155v-159q-86 -16 -175 -51t-136 -64l-45 -27v-743h-154z" />
<glyph unicode="&#x156;" horiz-adv-x="1277" d="M184 0v1425h525q231 0 341.5 -103t110.5 -331q0 -332 -260 -411l273 -580h-175l-256 539h-401v-539h-158zM342 688h369q289 0 288 303q0 147 -70.5 216t-219.5 69h-367v-588zM518 -584l84 424h152l-103 -424h-133z" />
<glyph unicode="&#x157;" horiz-adv-x="729" d="M90 -584l84 424h152l-103 -424h-133zM178 0v1024h154v-135q158 119 356 155v-159q-86 -16 -175 -51t-136 -64l-45 -27v-743h-154z" />
<glyph unicode="&#x158;" horiz-adv-x="1275" d="M184 0v1425h525q231 0 341.5 -103t110.5 -331q0 -332 -260 -411l273 -580h-175l-256 539h-401v-539h-158zM297 1903h182l160 -156l162 156h178l-272 -275h-136zM342 688h369q289 0 288 303q0 147 -70.5 216t-219.5 69h-367v-588z" />
<glyph unicode="&#x159;" horiz-adv-x="729" d="M72 1516h170l149 -170l148 170h170l-256 -304h-127zM178 0v1024h154v-135q158 119 356 155v-159q-86 -16 -175 -51t-136 -64l-45 -27v-743h-154z" />
<glyph unicode="&#x15a;" horiz-adv-x="1093" d="M90 1067q0 381 467 381l416 -41l-15 -143q-283 33 -401 32q-309 0 -309 -225q0 -131 70.5 -179t277.5 -93q227 -51 317.5 -129t90.5 -258q0 -430 -459 -430l-436 43l16 143q272 -35 418 -35q154 0 227.5 63.5t73.5 209.5q0 115 -66.5 165t-249.5 84q-240 51 -339 133 t-99 279zM303 1731l447 194l55 -143l-451 -176z" />
<glyph unicode="&#x15b;" horiz-adv-x="1001" d="M113 745q0 156 105.5 227.5t262.5 71.5l371 -38l-4 -134q-227 33 -359 33q-221 0 -221 -153q0 -72 49.5 -103t200.5 -53q211 -33 290 -93.5t79 -203.5q0 -172 -101.5 -245.5t-298.5 -73.5l-360 38l8 134q233 -35 338 -35q133 0 195.5 38t62.5 138q0 78 -50 108.5 t-208 55.5q-201 31 -280.5 88t-79.5 200zM250 1341l446 195l56 -143l-451 -176z" />
<glyph unicode="&#x15c;" horiz-adv-x="1093" d="M90 1067q0 381 467 381l416 -41l-15 -143q-283 33 -401 32q-309 0 -309 -225q0 -131 70.5 -179t277.5 -93q227 -51 317.5 -129t90.5 -258q0 -430 -459 -430l-436 43l16 143q272 -35 418 -35q154 0 227.5 63.5t73.5 209.5q0 115 -66.5 165t-249.5 84q-240 51 -339 133 t-99 279zM215 1630l272 277h138l272 -277h-178l-162 154l-160 -154h-182z" />
<glyph unicode="&#x15d;" horiz-adv-x="1001" d="M113 745q0 156 105.5 227.5t262.5 71.5l371 -38l-4 -134q-227 33 -359 33q-221 0 -221 -153q0 -72 49.5 -103t200.5 -53q211 -33 290 -93.5t79 -203.5q0 -172 -101.5 -245.5t-298.5 -73.5l-360 38l8 134q233 -35 338 -35q133 0 195.5 38t62.5 138q0 78 -50 108.5 t-208 55.5q-201 31 -280.5 88t-79.5 200zM182 1212l256 304h123l258 -304h-170l-147 172l-150 -172h-170z" />
<glyph unicode="&#x15e;" horiz-adv-x="1093" d="M90 1067q0 381 467 381l416 -41l-15 -143q-283 33 -401 32q-309 0 -309 -225q0 -131 70.5 -179t277.5 -93q227 -51 317.5 -129t90.5 -258q0 -401 -404 -428v-84q121 0 175 -33t54 -127q0 -184 -192 -184q-41 0 -85 3t-69 7l-22 4l6 98q80 -6 135 -6q90 0 90 78 q0 70 -90 70h-86v172q-72 2 -173 12t-167 20l-67 11l16 143q272 -35 418 -35q154 0 227.5 63.5t73.5 209.5q0 115 -66.5 165t-249.5 84q-240 51 -339 133t-99 279z" />
<glyph unicode="&#x15f;" horiz-adv-x="1001" d="M113 745q0 156 105.5 227.5t262.5 71.5l371 -38l-4 -134q-227 33 -359 33q-221 0 -221 -153q0 -72 49.5 -103t200.5 -53q211 -33 290 -93.5t79 -203.5q0 -166 -92.5 -239.5t-272.5 -79.5v-80q121 0 175.5 -33t54.5 -127q0 -184 -193 -184q-41 0 -85 3t-68 7l-23 4l6 98 q80 -6 135 -6q90 0 90 78q0 70 -90 70h-86v172q-59 2 -137 11t-125 17l-49 8l8 134q233 -35 338 -35q133 0 195.5 38t62.5 138q0 78 -50 108.5t-208 55.5q-201 31 -280.5 88t-79.5 200z" />
<glyph unicode="&#x160;" horiz-adv-x="1093" d="M90 1067q0 381 467 381l416 -41l-15 -143q-283 33 -401 32q-309 0 -309 -225q0 -131 70.5 -179t277.5 -93q227 -51 317.5 -129t90.5 -258q0 -430 -459 -430l-436 43l16 143q272 -35 418 -35q154 0 227.5 63.5t73.5 209.5q0 115 -66.5 165t-249.5 84q-240 51 -339 133 t-99 279zM219 1909h182l160 -156l162 156h178l-272 -275h-135z" />
<glyph unicode="&#x161;" horiz-adv-x="1001" d="M113 745q0 156 105.5 227.5t262.5 71.5l371 -38l-4 -134q-227 33 -359 33q-221 0 -221 -153q0 -72 49.5 -103t200.5 -53q211 -33 290 -93.5t79 -203.5q0 -172 -101.5 -245.5t-298.5 -73.5l-360 38l8 134q233 -35 338 -35q133 0 195.5 38t62.5 138q0 78 -50 108.5 t-208 55.5q-201 31 -280.5 88t-79.5 200zM199 1516h170l149 -170l148 170h170l-256 -304h-127z" />
<glyph unicode="&#x162;" horiz-adv-x="1007" d="M-8 1274v151h1024v-151h-432v-1274h-156v1274h-436zM385 -584l84 424h152l-103 -424h-133z" />
<glyph unicode="&#x163;" horiz-adv-x="749" d="M55 885v139h146v313h153v-313h324v-139h-324v-477q0 -176 24.5 -230.5t123.5 -54.5l182 10l8 -133q-135 -23 -207 -23q-162 0 -223 79t-61 296v533h-146zM252 -584l84 424h151l-102 -424h-133z" />
<glyph unicode="&#x164;" horiz-adv-x="1007" d="M-8 1274v151h1024v-151h-432v-1274h-156v1274h-436zM164 1903h182l160 -156l162 156h178l-273 -275h-135z" />
<glyph unicode="&#x165;" horiz-adv-x="1081" d="M55 885v139h146v313h153v-313h324v-139h-324v-477q0 -176 24.5 -230.5t123.5 -54.5l182 10l8 -133q-135 -23 -207 -23q-162 0 -223 79t-61 296v533h-146zM819 946v479h148v-479h-148z" />
<glyph unicode="&#x166;" horiz-adv-x="1007" d="M-8 1274v151h1024v-151h-432v-524h346v-136h-346v-614h-156v614h-326v136h326v524h-436z" />
<glyph unicode="&#x167;" horiz-adv-x="749" d="M55 885v139h146v313h153v-313h324v-139h-324v-281h-153v281h-146zM74 469v135h127v-135h-127zM201 352v117h153v-61q0 -176 24.5 -230.5t123.5 -54.5l182 10l8 -133q-135 -23 -207 -23q-162 0 -223 79t-61 296zM354 469v135h291v-135h-291z" />
<glyph unicode="&#x168;" horiz-adv-x="1318" d="M160 430v995h157v-995q0 -297 332 -297q170 0 258 68.5t88 228.5v995h156v-995q0 -236 -126 -342t-376 -106q-242 0 -365.5 105t-123.5 343zM297 1776q113 123 197 122q57 0 182 -56t151 -56q18 0 57.5 23.5t69.5 45.5l29 25l37 -119q-109 -119 -191 -119 q-51 0 -177 57.5t-156 57.5q-23 0 -64 -24.5t-72 -49.5l-28 -26z" />
<glyph unicode="&#x169;" horiz-adv-x="1144" d="M164 489v535h151v-532q0 -223 39 -299t178 -76q59 0 130 19.5t112 37.5l39 19v831h152v-1024h-152v66q-160 -86 -303 -86q-209 0 -277.5 108t-68.5 401zM231 1384q104 111 189 111q55 0 164.5 -50t136.5 -50q45 0 143 82l35 -119q-94 -104 -176 -105q-49 0 -161.5 51.5 t-141.5 51.5q-49 0 -152 -88z" />
<glyph unicode="&#x16a;" horiz-adv-x="1318" d="M160 430v995h157v-995q0 -297 332 -297q170 0 258 68.5t88 228.5v995h156v-995q0 -236 -126 -342t-376 -106q-242 0 -365.5 105t-123.5 343zM340 1692v135h637v-135h-637z" />
<glyph unicode="&#x16b;" horiz-adv-x="1144" d="M164 489v535h151v-532q0 -223 39 -299t178 -76q59 0 130 19.5t112 37.5l39 19v831h152v-1024h-152v66q-160 -86 -303 -86q-209 0 -277.5 108t-68.5 401zM274 1298v136h596v-136h-596z" />
<glyph unicode="&#x16c;" horiz-adv-x="1318" d="M160 430v995h157v-995q0 -297 332 -297q170 0 258 68.5t88 228.5v995h156v-995q0 -236 -126 -342t-376 -106q-242 0 -365.5 105t-123.5 343zM338 1896h156q2 -63 49 -101t116.5 -38t116.5 38t49 101h156q-6 -123 -93 -196.5t-228.5 -73.5t-228.5 73.5t-93 196.5z" />
<glyph unicode="&#x16d;" horiz-adv-x="1144" d="M164 489v535h151v-532q0 -223 39 -299t178 -76q59 0 130 19.5t112 37.5l39 19v831h152v-1024h-152v66q-160 -86 -303 -86q-209 0 -277.5 108t-68.5 401zM242 1501h157q4 -70 49.5 -111.5t123 -41.5t122.5 42t49 111h156q-6 -129 -93 -210t-235 -81q-150 0 -236.5 81 t-92.5 210z" />
<glyph unicode="&#x16e;" horiz-adv-x="1318" d="M160 430v995h157v-995q0 -297 332 -297q170 0 258 68.5t88 228.5v995h156v-995q0 -236 -126 -342t-376 -106q-242 0 -365.5 105t-123.5 343zM418 1733q0 100 67.5 157.5t174 57.5t174 -57.5t67.5 -157.5q0 -102 -67.5 -159.5t-174 -57.5t-174 57.5t-67.5 159.5zM543 1733 q0 -49 30.5 -77t85.5 -28q53 0 85 27.5t32 77t-30.5 76t-86.5 26.5q-116 0 -116 -102z" />
<glyph unicode="&#x16f;" horiz-adv-x="1144" d="M164 489v535h151v-532q0 -223 39 -299t178 -76q59 0 130 19.5t112 37.5l39 19v831h152v-1024h-152v66q-160 -86 -303 -86q-209 0 -277.5 108t-68.5 401zM369 1321q0 90 61.5 151.5t151.5 61.5q88 0 149.5 -61.5t61.5 -151.5t-60.5 -151.5t-150.5 -61.5t-151.5 61.5 t-61.5 151.5zM481 1321q0 -43 30 -73.5t73 -30.5q41 0 69.5 30.5t28.5 73.5q0 41 -28.5 71.5t-69.5 30.5q-43 0 -73 -29.5t-30 -72.5z" />
<glyph unicode="&#x170;" horiz-adv-x="1318" d="M160 430v995h157v-995q0 -297 332 -297q170 0 258 68.5t88 228.5v995h156v-995q0 -236 -126 -342t-376 -106q-242 0 -365.5 105t-123.5 343zM303 1616l291 270l121 -74l-299 -264zM717 1616l289 268l122 -74l-301 -264z" />
<glyph unicode="&#x171;" horiz-adv-x="1144" d="M164 489v535h151v-532q0 -223 39 -299t178 -76q59 0 130 19.5t112 37.5l39 19v831h152v-1024h-152v66q-160 -86 -303 -86q-209 0 -277.5 108t-68.5 401zM248 1278l297 283l110 -86l-303 -283zM643 1278l295 285l113 -88l-303 -283z" />
<glyph unicode="&#x172;" horiz-adv-x="1318" d="M160 430v995h157v-995q0 -297 332 -297q170 0 258 68.5t88 228.5v995h156v-995q0 -356 -307 -430q-139 -139 -139 -205q0 -35 19 -58.5t54 -23.5l101 11l14 -127q-92 -18 -162 -19q-82 0 -135 48t-53 130q0 94 131 226h-25q-242 0 -365.5 105t-123.5 343z" />
<glyph unicode="&#x173;" horiz-adv-x="1144" d="M164 489v535h151v-532q0 -223 39 -299t178 -76q59 0 130 19.5t112 37.5l39 19v831h152v-1024h-4l2 2l-134 14q-6 -6 -16 -14v64q-160 -86 -303 -86q-209 0 -277.5 108t-68.5 401zM659 -244q0 63 51.5 132t102.5 114v-2h148q-139 -139 -140 -205q0 -35 19.5 -58.5 t54.5 -23.5l100 11l15 -127q-92 -18 -162 -19q-82 0 -135.5 48t-53.5 130z" />
<glyph unicode="&#x174;" horiz-adv-x="1843" d="M76 1425h162l260 -1267h59l274 1255h179l282 -1255h60l254 1267h161l-303 -1425h-286l-256 1190l-252 -1190h-285zM580 1630l272 277h137l273 -277h-179l-161 154l-160 -154h-182z" />
<glyph unicode="&#x175;" horiz-adv-x="1550" d="M57 1024h154l205 -885h33l245 865h162l244 -865h33l206 885h154l-244 -1024h-260l-215 801l-219 -801h-256zM457 1212l256 304h123l258 -304h-170l-148 172l-149 -172h-170z" />
<glyph unicode="&#x176;" horiz-adv-x="1130" d="M39 1425h176l352 -639l348 639h177l-445 -815v-610h-158v612zM225 1630l273 277h137l272 -277h-178l-162 154l-159 -154h-183z" />
<glyph unicode="&#x177;" horiz-adv-x="987" d="M49 1024h154l256 -877h69l256 877h154l-426 -1479h-154l131 455h-149zM176 1212l256 304h123l258 -304h-170l-147 172l-150 -172h-170z" />
<glyph unicode="&#x178;" horiz-adv-x="1130" d="M39 1425h176l352 -639l348 639h177l-445 -815v-610h-158v612zM276 1679v185h150v-185h-150zM700 1679v185h148v-185h-148z" />
<glyph unicode="&#x179;" horiz-adv-x="1167" d="M123 -2v195l731 1040v41h-731v151h921v-194l-731 -1043v-38h731v-152h-921zM332 1731l446 194l56 -143l-451 -176z" />
<glyph unicode="&#x17a;" horiz-adv-x="980" d="M111 0v139l575 746h-575v139h759v-139l-575 -746h575v-139h-759zM233 1341l447 195l55 -143l-450 -176z" />
<glyph unicode="&#x17b;" horiz-adv-x="1167" d="M123 -2v195l731 1040v41h-731v151h921v-194l-731 -1043v-38h731v-152h-921zM506 1675v178h153v-178h-153z" />
<glyph unicode="&#x17c;" horiz-adv-x="980" d="M111 0v139l575 746h-575v139h759v-139l-575 -746h575v-139h-759zM414 1247v178h153v-178h-153z" />
<glyph unicode="&#x17d;" horiz-adv-x="1167" d="M123 -2v195l731 1040v41h-731v151h921v-194l-731 -1043v-38h731v-152h-921zM248 1909h182l160 -156l162 156h178l-273 -275h-135z" />
<glyph unicode="&#x17e;" horiz-adv-x="980" d="M111 0v139l575 746h-575v139h759v-139l-575 -746h575v-139h-759zM154 1516h170l149 -170l148 170h170l-256 -304h-127z" />
<glyph unicode="&#x192;" d="M143 -487l2 125l15 -3h36q22 0 46 -1l49 -2q25 -1 41 -1q156 0 155 234v876h-129v140h129v110q0 209 49.5 302t178.5 110q25 4 84 4l170 -12l-2 -129q-113 4 -174 4q-154 0 -154 -236v-153h299v-140h-299v-876q0 -201 -78 -284t-229 -83z" />
<glyph unicode="&#x1fa;" horiz-adv-x="1236" d="M59 0l375 1374q-59 55 -59 150q0 102 67.5 159.5t175.5 57.5q106 0 174 -57.5t68 -159.5q0 -86 -53 -144l371 -1378h-156l-109 356h-594l-102 -358h-158zM356 510h525l-211 770h-103zM360 1923l447 195l55 -144l-450 -176zM500 1524q0 -82 78 -99h79q78 16 78 99 q0 49 -31.5 76.5t-85.5 27.5q-55 0 -86.5 -27.5t-31.5 -76.5z" />
<glyph unicode="&#x1fb;" horiz-adv-x="1069" d="M100 293q0 145 76 217t236 86l323 31v84q0 186 -178 186l-391 -27l-6 134q246 41 403 40q164 0 244 -80.5t80 -252.5v-504q4 -80 119 -94l-7 -133q-166 0 -241 77q-184 -78 -379 -77q-133 0 -206 81.5t-73 231.5zM256 297q0 -88 38 -136t107.5 -48t152.5 15t132 32l49 14 v328l-303 -25q-176 -16 -176 -180zM285 1714l446 195l55 -144l-450 -176zM309 1304.5q0 90.5 61.5 152t151.5 61.5q88 0 149.5 -61.5t61.5 -152t-60.5 -151.5t-150.5 -61t-151.5 61t-61.5 151.5zM422 1305q0 -43 28.5 -74t71.5 -31t72 31t29 74t-29 72.5t-72 29.5 t-71.5 -29.5t-28.5 -72.5z" />
<glyph unicode="&#x1fc;" horiz-adv-x="1703" d="M82 0l459 1425h1198v-149h-705v-471h582v-150h-582v-505h705v-150h-860v358h-514l-121 -358h-162zM408 510h471v766h-224zM637 1731l446 194l56 -143l-451 -176z" />
<glyph unicode="&#x1fd;" horiz-adv-x="1695" d="M111 293q0 164 82.5 226.5t285.5 82.5l264 25v84q0 186 -176 186q-68 0 -165 -5t-160 -11l-66 -4l-4 137q244 31 401 30q209 0 277 -149q98 150 319 149q207 0 310.5 -115.5t103.5 -363.5l-8 -119h-678q0 -168 61.5 -247.5t208.5 -79.5q68 0 161 5t155 9l59 4l4 -125 q-231 -33 -397 -32q-207 0 -301 110l-66 -29q-190 -82 -393 -81q-137 0 -207.5 80.5t-70.5 232.5zM266 297q0 -184 146 -184q94 0 215 29.5t151 45.5q-37 104 -37 314l-301 -25q-90 -8 -132 -51t-42 -129zM618 1341l447 195l55 -143l-450 -176zM897 571h533q0 182 -61.5 259 t-199.5 77q-135 0 -203.5 -80t-68.5 -256z" />
<glyph unicode="&#x1fe;" horiz-adv-x="1343" d="M106 705q0 375 124 558t438 183q137 0 247 -39l109 233l143 -55l-120 -258q180 -164 180 -622q0 -383 -121 -554t-438 -171q-131 0 -236 32l-119 -254l-139 62l123 262q-191 152 -191 623zM270 705q0 -344 101 -465l477 1024q-72 33 -180 32q-231 0 -314.5 -142 t-83.5 -449zM401 1731l447 194l55 -143l-450 -176zM498 154q72 -25 170 -25q236 0 316.5 132t80.5 444q0 330 -94 460z" />
<glyph unicode="&#x1ff;" horiz-adv-x="1081" d="M102 526q0 270 101.5 394t339.5 124q78 0 149 -16l86 213l105 -39l-90 -215q186 -109 186 -465q0 -281 -94 -411.5t-342 -130.5q-86 0 -158 16l-90 -225l-102 36l90 226q-98 55 -139.5 173.5t-41.5 319.5zM260 526q0 -145 18.5 -229t67.5 -127l293 723q-43 12 -96 12 q-162 0 -222.5 -83t-60.5 -296zM289 1341l446 195l56 -143l-451 -176zM436 127q39 -10 107 -10q170 0 224 92t54 313q0 238 -92 322z" />
<glyph unicode="&#x218;" horiz-adv-x="1093" d="M90 1067q0 381 467 381l416 -41l-15 -143q-283 33 -401 32q-309 0 -309 -225q0 -131 70.5 -179t277.5 -93q227 -51 317.5 -129t90.5 -258q0 -430 -459 -430l-436 43l16 143q272 -35 418 -35q154 0 227.5 63.5t73.5 209.5q0 115 -66.5 165t-249.5 84q-240 51 -339 133 t-99 279zM414 -584l84 424h151l-102 -424h-133z" />
<glyph unicode="&#x219;" horiz-adv-x="1001" d="M113 745q0 156 105.5 227.5t262.5 71.5l371 -38l-4 -134q-227 33 -359 33q-221 0 -221 -153q0 -72 49.5 -103t200.5 -53q211 -33 290 -93.5t79 -203.5q0 -172 -101.5 -245.5t-298.5 -73.5l-360 38l8 134q233 -35 338 -35q133 0 195.5 38t62.5 138q0 78 -50 108.5 t-208 55.5q-201 31 -280.5 88t-79.5 200zM379 -584l84 424h151l-102 -424h-133z" />
<glyph unicode="&#x2c6;" horiz-adv-x="483" d="M-51 1212l256 304h123l258 -304h-170l-148 172l-149 -172h-170z" />
<glyph unicode="&#x2c7;" horiz-adv-x="483" d="M-47 1516h170l149 -170l148 170h170l-256 -304h-127z" />
<glyph unicode="&#x2d8;" horiz-adv-x="483" d="M-59 1501h157q4 -70 48 -111.5t122 -41.5q80 0 125 42t47 111h158q-6 -129 -93 -210t-237 -81q-147 0 -234 81t-93 210z" />
<glyph unicode="&#x2d9;" horiz-adv-x="483" d="M166 1247v178h151v-178h-151z" />
<glyph unicode="&#x2da;" horiz-adv-x="483" d="M37 1321q0 90 61.5 151.5t151.5 61.5q88 0 149.5 -61.5t61.5 -151.5t-60.5 -151.5t-150.5 -61.5t-151.5 61.5t-61.5 151.5zM150 1321q0 -43 28.5 -73.5t71.5 -30.5t71.5 30.5t28.5 73.5t-28.5 72.5t-71.5 29.5t-71.5 -29.5t-28.5 -72.5z" />
<glyph unicode="&#x2db;" horiz-adv-x="921" d="M385 -244q0 53 43 119t84 105l43 36l133 -14q-141 -139 -141 -207q0 -35 19.5 -58.5t54.5 -23.5l100 11l14 -127q-92 -18 -162 -19q-82 0 -135 48t-53 130z" />
<glyph unicode="&#x2dc;" horiz-adv-x="483" d="M-72 1384q104 111 189 111q53 0 163.5 -50t137.5 -50q43 0 143 82l35 -119q-94 -104 -178 -105q-49 0 -160 51.5t-141 51.5q-49 0 -152 -88z" />
<glyph unicode="&#x2dd;" horiz-adv-x="483" d="M-104 1278l297 283l110 -86l-301 -283zM291 1278l297 285l110 -88l-303 -283z" />
<glyph unicode="&#x300;" horiz-adv-x="483" d="M31 1399l53 135l446 -193l-49 -118z" />
<glyph unicode="&#x301;" horiz-adv-x="483" d="M4 1341l447 195l55 -143l-451 -176z" />
<glyph unicode="&#x302;" horiz-adv-x="483" d="M-43 1212l256 304h123l258 -304h-170l-148 172l-149 -172h-170z" />
<glyph unicode="&#x303;" horiz-adv-x="483" d="M-72 1384q104 111 189 111q53 0 163.5 -50t137.5 -50q43 0 143 82l35 -119q-94 -104 -178 -105q-49 0 -160 51.5t-141 51.5q-49 0 -152 -88z" />
<glyph unicode="&#x304;" horiz-adv-x="483" d="M-45 1298v136h596v-136h-596z" />
<glyph unicode="&#x306;" horiz-adv-x="483" d="M-59 1501h157q4 -70 48 -111.5t122 -41.5q80 0 125 42t47 111h158q-6 -129 -93 -210t-237 -81q-147 0 -234 81t-93 210z" />
<glyph unicode="&#x307;" horiz-adv-x="483" d="M166 1247v178h151v-178h-151z" />
<glyph unicode="&#x308;" horiz-adv-x="483" d="M-25 1280v184h148v-184h-148zM385 1280v184h150v-184h-150z" />
<glyph unicode="&#x30a;" horiz-adv-x="483" d="M41 1321q0 90 61.5 151.5t151.5 61.5q88 0 149.5 -61.5t61.5 -151.5t-60.5 -151.5t-150.5 -61.5t-151.5 61.5t-61.5 151.5zM154 1321q0 -43 28.5 -73.5t71.5 -30.5t71.5 30.5t28.5 73.5t-28.5 72.5t-71.5 29.5t-71.5 -29.5t-28.5 -72.5z" />
<glyph unicode="&#x30b;" horiz-adv-x="483" d="M-104 1278l297 283l110 -86l-301 -283zM291 1278l297 285l110 -88l-303 -283z" />
<glyph unicode="&#x30c;" horiz-adv-x="483" d="M-57 1516h170l149 -170l148 170h170l-256 -304h-127z" />
<glyph unicode="&#x312;" horiz-adv-x="348" d="M47 1206l103 424h133l-84 -424h-152z" />
<glyph unicode="&#x315;" horiz-adv-x="309" d="M76 946v479h147v-479h-147z" />
<glyph unicode="&#x326;" horiz-adv-x="348" d="M47 -584l84 424h152l-103 -424h-133z" />
<glyph unicode="&#x327;" horiz-adv-x="1167" d="M508 -430l6 98q80 -6 135 -6q90 0 90 78q0 70 -90 70h-86v192h84v-102q121 0 175.5 -33t54.5 -127q0 -184 -193 -184q-41 0 -85 3t-67 7z" />
<glyph unicode="&#x328;" horiz-adv-x="921" d="M385 -244q0 53 43 119t84 105l43 36l133 -14q-141 -139 -141 -207q0 -35 19.5 -58.5t54.5 -23.5l100 11l14 -127q-92 -18 -162 -19q-82 0 -135 48t-53 130z" />
<glyph unicode="&#x394;" d="M82 0v125l326 1251h278l324 -1253l2 -123h-930zM244 143h604l-279 1090h-45z" />
<glyph unicode="&#x2206;" d="M82 0v125l326 1251h278l324 -1253l2 -123h-930zM244 143h604l-279 1090h-45z" />
<glyph unicode="&#x3a9;" d="M61 -18v133h244q-8 12 -22.5 36.5t-51 97.5t-65.5 145.5t-51.5 174t-22.5 189.5q0 324 97.5 469t353.5 145t353 -145.5t97 -468.5q0 -141 -54 -302t-108 -251l-53 -90h246v-133h-403v112l22 40q14 26 51 102.5t65.5 149.5t51.5 169t23 174q0 266 -56.5 380t-234.5 114 q-78 0 -130.5 -21.5t-84 -57.5t-49 -102.5t-22.5 -136t-5 -176.5q0 -123 53 -281.5t107 -254.5l53 -99v-112h-404z" />
<glyph unicode="&#x2126;" d="M61 -18v133h244q-8 12 -22.5 36.5t-51 97.5t-65.5 145.5t-51.5 174t-22.5 189.5q0 324 97.5 469t353.5 145t353 -145.5t97 -468.5q0 -141 -54 -302t-108 -251l-53 -90h246v-133h-403v112l22 40q14 26 51 102.5t65.5 149.5t51.5 169t23 174q0 266 -56.5 380t-234.5 114 q-78 0 -130.5 -21.5t-84 -57.5t-49 -102.5t-22.5 -136t-5 -176.5q0 -123 53 -281.5t107 -254.5l53 -99v-112h-404z" />
<glyph unicode="&#x3c0;" d="M8 858v139q51 10 128 16.5t128 8.5l51 2h443q195 0 295 33v-139q-61 -25 -189 -31v-572q0 -115 36 -151.5t142 -36.5v-135q-203 0 -267 65.5t-64 257.5v570h-320l-57 -885h-154l58 885q-146 -7 -230 -27z" />
<glyph unicode="&#x1e80;" horiz-adv-x="1843" d="M76 1425h162l260 -1267h59l274 1255h179l282 -1255h60l254 1267h161l-303 -1425h-286l-256 1190l-252 -1190h-285zM676 1774l57 141l447 -193l-52 -127z" />
<glyph unicode="&#x1e81;" horiz-adv-x="1550" d="M57 1024h154l205 -885h33l245 865h162l244 -865h33l206 885h154l-244 -1024h-260l-215 801l-219 -801h-256zM526 1399l54 135l446 -193l-49 -118z" />
<glyph unicode="&#x1e82;" horiz-adv-x="1843" d="M76 1425h162l260 -1267h59l274 1255h179l282 -1255h60l254 1267h161l-303 -1425h-286l-256 1190l-252 -1190h-285zM682 1731l446 194l56 -143l-451 -176z" />
<glyph unicode="&#x1e83;" horiz-adv-x="1550" d="M57 1024h154l205 -885h33l245 865h162l244 -865h33l206 885h154l-244 -1024h-260l-215 801l-219 -801h-256zM524 1341l447 195l55 -143l-451 -176z" />
<glyph unicode="&#x1e84;" horiz-adv-x="1843" d="M76 1425h162l260 -1267h59l274 1255h179l282 -1255h60l254 1267h161l-303 -1425h-286l-256 1190l-252 -1190h-285zM635 1679v185h147v-185h-147zM1057 1679v185h149v-185h-149z" />
<glyph unicode="&#x1e85;" horiz-adv-x="1550" d="M57 1024h154l205 -885h33l245 865h162l244 -865h33l206 885h154l-244 -1024h-260l-215 801l-219 -801h-256zM496 1280v184h147v-184h-147zM905 1280v184h150v-184h-150z" />
<glyph unicode="&#x1eab;" horiz-adv-x="1091" d="M100 293q0 145 76 217t236 86l323 31v84q0 186 -178 186l-391 -27l-6 134q246 41 403 40q164 0 244 -80.5t80 -252.5v-504q4 -80 119 -94l-7 -133q-166 0 -241 77q-184 -78 -379 -77q-133 0 -206 81.5t-73 231.5zM147 1638q104 111 189 111q53 0 163.5 -50t137.5 -50 q43 0 143 82l35 -119q-94 -104 -178 -105q-47 0 -159.5 51.5t-141.5 51.5q-49 0 -152 -88zM182 1151l256 303h123l258 -303h-170l-147 172l-150 -172h-170zM256 297q0 -88 38 -136t107.5 -48t152.5 15t132 32l49 14v328l-303 -25q-176 -16 -176 -180z" />
<glyph unicode="&#x1eb0;" horiz-adv-x="1236" d="M59 0l390 1425h346l383 -1423h-156l-109 356h-594l-102 -358h-158zM256 2099l53 135l447 -192l-49 -119zM295 1827h158q2 -63 48 -100t115 -37q72 0 118 36.5t48 100.5h158q-6 -121 -94 -194.5t-229.5 -73.5t-228.5 73.5t-93 194.5zM356 510h525l-211 770h-103z" />
<glyph unicode="&#x1ec5;" horiz-adv-x="1038" d="M102 506q0 539 430 538q207 0 309.5 -115.5t102.5 -363.5l-8 -119h-678q2 -168 62.5 -247.5t207.5 -79.5q68 0 162 5t154 9l59 4l4 -125q-231 -33 -397 -32q-223 0 -315.5 128t-92.5 398zM180 1638q104 111 189 111q53 0 163.5 -50t137.5 -50q43 0 143 82l35 -119 q-94 -104 -178 -105q-47 0 -160 51.5t-141 51.5q-49 0 -152 -88zM211 1151l256 303h123l258 -303h-170l-148 172l-149 -172h-170zM258 571h533q0 182 -61.5 259t-197.5 77q-274 0 -274 -336z" />
<glyph unicode="&#x1ed7;" horiz-adv-x="1093" d="M102 526q0 270 101.5 394t339.5 124q229 0 332.5 -128t103.5 -394q0 -281 -94 -411.5t-342 -130.5q-252 0 -346.5 126.5t-94.5 419.5zM168 1638q104 111 188 111q53 0 164 -50t137 -50q43 0 144 82l35 -119q-94 -104 -179 -105q-47 0 -159.5 51.5t-141.5 51.5 q-49 0 -151 -88zM211 1151l256 303h123l258 -303h-170l-148 172l-149 -172h-170zM260 526q0 -229 55.5 -319t227.5 -90q170 0 224 92t54 313q0 205 -65.5 294t-212.5 89q-162 0 -222.5 -83t-60.5 -296z" />
<glyph unicode="&#x1ef2;" horiz-adv-x="1130" d="M39 1425h176l352 -639l348 639h177l-445 -815v-610h-158v612zM332 1774l57 141l447 -193l-52 -127z" />
<glyph unicode="&#x1ef3;" horiz-adv-x="987" d="M49 1024h154l256 -877h69l256 877h154l-426 -1479h-154l131 455h-149zM244 1399l53 135l446 -193l-49 -118z" />
<glyph unicode="&#x1ef8;" horiz-adv-x="1130" d="M39 1425h176l352 -639l348 639h177l-445 -815v-610h-158v612zM221 1786q104 111 189 110q53 0 163.5 -50t137.5 -50q43 0 143 82l35 -119q-94 -104 -178 -104q-47 0 -160 51t-141 51q-49 0 -152 -88z" />
<glyph unicode="&#x1ef9;" horiz-adv-x="987" d="M49 1024h154l256 -877h69l256 877h154l-426 -1479h-154l131 455h-149zM150 1384q104 111 188 111q53 0 163.5 -50t137.5 -50q43 0 143 82l35 -119q-94 -104 -178 -105q-49 0 -159.5 51.5t-141.5 51.5q-49 0 -152 -88z" />
<glyph unicode="&#x2013;" horiz-adv-x="1024" d="M0 483v144h1024v-144h-1024z" />
<glyph unicode="&#x2014;" horiz-adv-x="2048" d="M0 483v144h2048v-144h-2048z" />
<glyph unicode="&#x2018;" horiz-adv-x="348" d="M29 1040l106 449h139l-88 -449h-157z" />
<glyph unicode="&#x2019;" horiz-adv-x="348" d="M72 1079l88 449h157l-106 -449h-139z" />
<glyph unicode="&#x201a;" horiz-adv-x="393" d="M55 -211l107 449h139l-88 -449h-158z" />
<glyph unicode="&#x201c;" horiz-adv-x="780" d="M231 1040l107 449h166l-88 -449h-185z" />
<glyph unicode="&#x201d;" horiz-adv-x="792" d="M141 1036l88 449h158l-106 -449h-140zM461 1036l88 449h158l-107 -449h-139z" />
<glyph unicode="&#x201e;" horiz-adv-x="749" d="M55 -211l107 449h139l-88 -449h-158zM420 -211l106 449h140l-88 -449h-158z" />
<glyph unicode="&#x2020;" d="M123 868v152h344v389h151v-389h345v-152h-345v-1024h-151v1024h-344z" />
<glyph unicode="&#x2021;" d="M123 233v148h344v487h-344v152h344v389h151v-389h343v-152h-343v-487h345v-148h-345v-389h-151v389h-344z" />
<glyph unicode="&#x2022;" d="M291 217v586h504v-586h-504z" />
<glyph unicode="&#x2026;" horiz-adv-x="1523" d="M176 0v233h166v-233h-166zM696 0v233h168v-233h-168zM1219 0v233h165v-233h-165z" />
<glyph unicode="&#x2030;" horiz-adv-x="1705" d="M39 1153q0 283 225 283t225 -283q0 -145 -59 -218t-165.5 -73t-166 73t-59.5 218zM162 1153q0 -184 102 -184q55 0 79 45t24 139q0 92 -24 135t-79 43t-78.5 -43t-23.5 -135zM313 8l383 1444l111 -29l-385 -1441zM621 291q0 283 225 282.5t225 -284.5q0 -143 -59.5 -216 t-166 -73t-165.5 73t-59 218zM745 291q0 -186 101 -187q102 0 102 185q0 92 -23.5 135t-78.5 43q-53 0 -77 -42t-24 -134zM1149 291q0 283 225 282.5t225 -284.5q0 -143 -59 -216t-165.5 -73t-166 73t-59.5 218zM1272 291q0 -186 102 -187q55 0 78 45.5t23 139.5t-22.5 136 t-78 42t-79 -42t-23.5 -134z" />
<glyph unicode="&#x2039;" horiz-adv-x="636" d="M102 446v123l387 293v-157l-253 -193l253 -215v-160z" />
<glyph unicode="&#x203a;" horiz-adv-x="636" d="M147 145v160l256 215l-256 193v157l388 -292v-123z" />
<glyph unicode="&#x2070;" horiz-adv-x="542" d="M31 1298.5q0 184.5 61.5 262t181.5 77.5q123 0 183.5 -77.5t60.5 -262t-61.5 -262.5t-180.5 -78q-121 0 -183 78t-62 262.5zM166 1298q0 -125 27.5 -172t83 -47t81 46t25.5 173q0 121 -25.5 170.5t-83 49.5t-83 -49.5t-25.5 -170.5z" />
<glyph unicode="&#x2074;" horiz-adv-x="542" d="M31 1077v113l141 428h143l-149 -420h151l13 180h119v-180h53v-121h-53v-98h-132v98h-286z" />
<glyph unicode="&#x2075;" horiz-adv-x="542" d="M61 989l11 113q111 -23 194 -23q96 0 96 101q0 92 -81 92q-25 0 -51.5 -7.5t-41.5 -15.5l-14 -8l-102 12l20 365h383v-117h-274l-11 -145q49 31 117 30q193 0 193 -202q0 -109 -59.5 -165t-159.5 -56q-43 0 -98.5 6t-88.5 14z" />
<glyph unicode="&#x2076;" horiz-adv-x="542" d="M41 1290q0 180 61.5 264t194.5 84q33 0 79 -5t75 -11l30 -4l-8 -111q-102 12 -172 13q-63 0 -93 -35t-32 -115l19 6q18 6 48.5 14.5t53.5 8.5q211 0 211 -211q0 -106 -61.5 -168t-163.5 -62q-242 0 -242 332zM176 1253q0 -178 103 -178q96 0 96 111q0 55 -22.5 77.5 t-71.5 22.5z" />
<glyph unicode="&#x2077;" horiz-adv-x="542" d="M53 1491v127h426v-158l-217 -499l-143 26l211 461v43h-277z" />
<glyph unicode="&#x2078;" horiz-adv-x="542" d="M27 1153q0 119 102 162q-92 33 -92 149q0 174 233 174q236 0 236 -174q0 -123 -90 -151q98 -29 98 -152q0 -111 -62.5 -157t-181.5 -46q-243 0 -243 195zM164 1155q0 -84 106 -84q109 0 109 90q0 70 -80 94h-55q-80 -24 -80 -100zM170 1452q0 -63 74 -90h55q74 25 74 88 q0 76 -103 76q-100 0 -100 -74z" />
<glyph unicode="&#x2079;" horiz-adv-x="542" d="M35 1413q0 106 63.5 165.5t165.5 59.5q242 0 242 -342q0 -180 -60.5 -259t-193.5 -79q-39 0 -86 6.5t-76 12.5l-29 6l9 109q92 -12 170 -13q129 0 129 146q-68 -25 -125 -25q-100 0 -154.5 56.5t-54.5 156.5zM170 1415q0 -47 24.5 -76.5t67.5 -29.5q20 0 48 7t46 15l17 8 q-4 180 -105 181q-98 -1 -98 -105z" />
<glyph unicode="&#x2080;" horiz-adv-x="542" d="M31 319.5q0 184.5 61.5 262t181.5 77.5q123 0 183.5 -77.5t60.5 -262t-61.5 -262t-180.5 -77.5q-121 0 -183 77.5t-62 262zM166 319q0 -125 27.5 -172t83 -47t81 46.5t25.5 172.5q0 121 -25.5 170.5t-83 49.5t-83 -49.5t-25.5 -170.5z" />
<glyph unicode="&#x2081;" horiz-adv-x="542" d="M61 496l209 143h123v-639h-131v496l-139 -97z" />
<glyph unicode="&#x2082;" horiz-adv-x="542" d="M45 0v115l180 176q104 100 105 170q0 74 -101 74l-172 -21l-6 121q123 25 211 24q106 0 155.5 -45t49.5 -141q0 -117 -127 -231l-125 -123h260v-119h-430z" />
<glyph unicode="&#x2083;" horiz-adv-x="542" d="M51 0l10 115q115 -14 205 -15q100 0 101 84q0 86 -95 86h-135v111h133q29 0 53.5 26.5t24.5 63.5q0 68 -92 68l-186 -15l-11 115q121 20 209 20q217 0 217 -172q0 -102 -82 -153q51 -16 75 -49t24 -107q0 -199 -219 -198q-45 0 -102.5 5t-94.5 11z" />
<glyph unicode="&#x2084;" horiz-adv-x="542" d="M31 98v113l141 428h143l-149 -420h151l13 180h119v-180h53v-121h-53v-98h-132v98h-286z" />
<glyph unicode="&#x2085;" horiz-adv-x="542" d="M61 10l11 113q111 -23 194 -23q96 0 96 101q0 92 -81 92q-25 0 -51.5 -7t-41.5 -16l-14 -8l-102 12l20 365h383v-117h-274l-11 -145q49 31 117 31q193 0 193 -203q0 -109 -59.5 -165t-159.5 -56q-43 0 -98.5 6t-88.5 14z" />
<glyph unicode="&#x2086;" horiz-adv-x="542" d="M41 311q0 180 61.5 264t194.5 84q33 0 79 -5t75 -11l30 -4l-8 -111q-102 12 -172 13q-63 0 -93 -35t-32 -115l19 6q18 6 48.5 14.5t53.5 8.5q211 0 211 -211q0 -106 -61.5 -167.5t-163.5 -61.5q-242 -1 -242 331zM176 274q0 -178 103 -178q96 0 96 111q0 55 -22.5 77.5 t-71.5 22.5z" />
<glyph unicode="&#x2087;" horiz-adv-x="542" d="M53 512v127h426v-158l-217 -499l-143 26l211 461v43h-277z" />
<glyph unicode="&#x2088;" horiz-adv-x="542" d="M27 174q0 119 102 162q-92 33 -92 149q0 174 233 174q236 0 236 -174q0 -123 -90 -151q98 -29 98 -152q0 -111 -62.5 -156.5t-181.5 -45.5q-243 -1 -243 194zM164 176q0 -84 106 -84q109 0 109 90q0 70 -80 94h-55q-80 -24 -80 -100zM170 473q0 -63 74 -90h55 q74 25 74 88q0 76 -103 76q-100 0 -100 -74z" />
<glyph unicode="&#x2089;" horiz-adv-x="542" d="M35 434q0 106 63.5 165.5t165.5 59.5q242 0 242 -342q0 -180 -60.5 -258.5t-193.5 -78.5q-39 0 -86 6t-76 12l-29 6l9 109q92 -12 170 -13q129 0 129 146q-68 -25 -125 -25q-100 0 -154.5 56.5t-54.5 156.5zM170 436q0 -47 24.5 -76.5t67.5 -29.5q20 0 48 7t46 15l17 8 q-4 180 -105 181q-98 -1 -98 -105z" />
<glyph unicode="&#x20ac;" horiz-adv-x="1136" d="M61 457v127h121q-2 29 -2 94t2 98h-121v127h129q25 252 135.5 365.5t364.5 113.5l363 -39l-6 -141q-195 27 -340 27q-180 0 -257 -76t-96 -250l553 -2v-125h-563v-192l563 -2v-125h-553q18 -172 96 -248t261 -76l336 29l6 -144q-201 -39 -363 -38q-256 0 -366.5 113.5 t-133.5 363.5h-129z" />
<glyph unicode="&#x2122;" d="M14 1188v102h410v-102h-135v-508h-113v508h-162zM487 678v612h146l137 -426l143 426h146v-612h-107v459l-135 -428h-88l-135 428v-459h-107z" />
<glyph unicode="&#x2211;" horiz-adv-x="1705" />
<glyph unicode="&#x2212;" d="M68 537v143h946v-143h-946z" />
<glyph unicode="&#x221e;" horiz-adv-x="1089" d="M45 598q0 170 63.5 260t188.5 90q90 0 146.5 -47t101.5 -147q43 100 99 147t149 47q125 0 188 -90t63 -260q0 -350 -256 -350q-88 0 -143 46t-98 144q-47 -111 -98.5 -150.5t-147.5 -39.5q-256 0 -256 350zM190 598q0 -205 117 -205q27 0 48.5 9.5t34.5 19.5t28.5 35.5 t23 40t22.5 50.5l21 50l-21 50q-15 36 -22.5 50.5t-23 40t-28.5 35.5t-34.5 19.5t-48.5 9.5q-117 0 -117 -205zM604 598l22 -50q15 -36 22 -50.5t22.5 -40t29 -35.5t35 -19.5t47.5 -9.5q115 0 115 205t-115 205q-27 0 -48 -9.5t-34.5 -19.5t-29 -35.5t-22.5 -40t-22 -50.5z " />
<glyph unicode="&#x2248;" d="M129 410q12 12 34.5 30.5t83 49t111.5 30.5q63 0 199.5 -51t179.5 -51q35 0 85 24.5t83 49.5l33 22l14 -147q-12 -12 -32.5 -30t-78 -47.5t-106.5 -29.5q-63 0 -202.5 51t-180.5 51q-39 0 -90 -24.5t-84 -48.5l-33 -25zM131 799q12 12 34.5 30.5t83 49t111.5 30.5 q63 0 199.5 -51t179.5 -51q35 0 85 24.5t83 49.5l33 22l14 -147q-12 -12 -32.5 -29.5t-78 -47.5t-106.5 -30q-63 0 -202.5 51.5t-180.5 51.5q-39 0 -90 -25t-84 -49l-33 -25z" />
<glyph unicode="&#x2260;" d="M92 690v141h506l141 322l131 -53l-118 -269h252v-141h-314l-115 -262h431v-143h-492l-141 -320l-131 53l116 267h-264v143h326l117 262h-445z" />
<glyph unicode="&#x2264;" d="M164 82v151h727v-151h-727zM164 635v192l727 291v-162l-580 -221l580 -235v-166z" />
<glyph unicode="&#x2265;" d="M195 82v151h735v-151h-735zM195 334v166l587 235l-587 221v162l735 -291v-192z" />
<glyph unicode="&#xe000;" horiz-adv-x="1025" d="M0 1025h1025v-1025h-1025v1025z" />
<glyph horiz-adv-x="481" />
<glyph horiz-adv-x="1101" d="M207 0v1495h72v-534q170 82 352 81q203 0 275.5 -115.5t72.5 -391.5q0 -301 -96.5 -427t-370.5 -126zM279 59q160 -12 231 -12q127 0 206 27.5t120 93t54 147.5t13 215q0 244 -54 345.5t-218 101.5q-82 0 -170 -20.5t-135 -41.5l-47 -20v-836z" />
<glyph horiz-adv-x="1284" d="M211 0v1434h491q209 0 311.5 -84t102.5 -265q0 -272 -198 -346q254 -70 253 -338q0 -221 -110.5 -311t-319.5 -90h-530zM285 70h456q170 0 262.5 74.5t92.5 256.5q0 297 -371 297h-440v-628zM285 766h440q164 0 239.5 80t75.5 239q0 147 -81.5 213t-256.5 66h-417v-598z " />
<glyph horiz-adv-x="983" d="M72 1024h75l299 -958h89l301 958h75l-321 -1024h-201z" />
<glyph horiz-adv-x="933" d="M78 0l346 512l-346 512h82l307 -457l307 457h82l-346 -512l346 -512h-84l-305 457l-305 -457h-84z" />
<glyph d="M94 690q0 369 130 525.5t374 156.5l328 -39l-8 -67q-147 37 -320 37q-209 0 -317.5 -135.5t-108.5 -446.5q0 4 57.5 31.5t155.5 57.5t178 30q428 0 428 -414q0 -444 -438 -444q-236 0 -347.5 178t-111.5 530zM170 649q4 -299 94 -448.5t289 -149.5q195 0 277.5 92.5 t82.5 282.5q0 166 -79.5 255t-274.5 89q-180 -6 -385 -119z" />
<glyph d="M96 928q0 211 113 327.5t334 116.5q231 0 339.5 -177t108.5 -531q0 -371 -123 -526.5t-364 -155.5q-76 0 -164 11t-139 21l-49 11l12 65q168 -39 340 -39q207 0 309 138.5t102 453.5q0 -4 -57 -31.5t-155.5 -57.5t-178.5 -30q-217 0 -322.5 109t-105.5 295zM174 928 q0 -152 86 -243t268 -91q180 6 385 119l5 2q-10 588 -375 588q-369 0 -369 -375z" />
<glyph horiz-adv-x="1337" d="M211 0v1434h586q121 0 209 -72t130 -186.5t60 -223t18 -215.5q0 -80 -7 -159.5t-32.5 -189t-67.5 -191.5t-123 -139.5t-187 -57.5h-586zM285 70h512q90 0 157.5 57t101.5 133t53 180.5t23.5 169t4.5 127.5q0 70 -14.5 161t-47.5 203.5t-105.5 187.5t-172.5 75h-512v-1294 z" />
<glyph d="M211 0v1434h74v-1364h698v-70h-772z" />
<glyph horiz-adv-x="0" />
<glyph d="M59 1165q0 143 52.5 208t164.5 65q111 0 164.5 -64.5t53.5 -210.5q0 -283 -218 -282q-111 0 -164 68.5t-53 215.5zM131 1165q0 -111 33 -165t112 -54q82 0 114 53.5t32 163.5q0 109 -32 159t-114 50q-80 0 -112.5 -50.5t-32.5 -156.5zM381 12l295 1424l74 -15l-295 -1423 zM635 285q0 143 52 207.5t165 64.5q111 0 164 -64.5t53 -209.5q0 -283 -217 -283q-111 0 -164 69t-53 216zM707 285q0 -111 32.5 -165t112.5 -54q82 0 113.5 53t31.5 164q0 109 -31.5 159t-113.5 50q-80 0 -112.5 -50.5t-32.5 -156.5z" />
<glyph d="M279 938l225 164l-223 164l41 55l225 -166l86 264l65 -20l-86 -266h277v-70h-281l86 -264l-65 -21l-86 266l-226 -161z" />
<glyph horiz-adv-x="532" d="M10 616.5q0 182.5 50.5 411.5t99.5 369l49 139h72q-23 -59 -54.5 -158.5t-86 -344.5t-54.5 -417q0 -342 178 -829l17 -43h-72q-23 51 -55.5 139t-88 319.5t-55.5 414z" />
<glyph horiz-adv-x="532" d="M-8 -246q23 59 54.5 158.5t85.5 344.5t54 417q0 342 -178 829l-16 43h71q23 -51 56 -139t88 -319.5t55 -413.5t-49 -411.5t-98 -368.5l-52 -140h-71z" />
<glyph horiz-adv-x="583" d="M0 602v66q117 29 165 86t48 159q0 27 -7 124.5t-7 138.5q0 184 83 269t277 93l4 -65q-168 -8 -230.5 -79t-62.5 -218q0 -35 7.5 -125t7.5 -119q0 -133 -45 -195.5t-160 -99.5q115 -37 160 -100.5t45 -190.5l-15 -237q0 -147 62.5 -218t230.5 -79l-4 -66q-195 8 -277.5 93 t-82.5 270q0 43 7 136t7 115q0 100 -48 154.5t-165 87.5z" />
<glyph horiz-adv-x="1933" d="M123 711q0 377 118.5 559t430.5 182q221 0 301 -18h837v-74h-763v-586h641v-74h-641v-626h763v-74h-833v-2q-72 -16 -305 -16q-164 0 -272.5 45t-169 142t-84 225.5t-23.5 316.5zM201 711q0 -174 18.5 -287t68.5 -202t144 -130t240 -41q217 0 301 19v1288q-80 25 -301 24 q-143 0 -237.5 -43t-144.5 -134t-69.5 -206.5t-19.5 -287.5zM973 1358l2 -680v680h-2z" />
<glyph horiz-adv-x="1705" d="M469 434v66h379v477h-379v65h379v392h72v-392h378v-65h-378v-477h378v-66h-378v-434h-72v434h-379z" />
<glyph horiz-adv-x="790" d="M10 1397q229 55 340 55q203 0 306.5 -74.5t103.5 -249.5q0 -92 -42 -173t-101.5 -139l-120 -111.5t-102.5 -114t-42 -123.5v-78h-71v84q0 70 42 136.5t102 121.5l120 113q59 57 101 131t42 153q0 141 -83 198.5t-255 57.5l-330 -57zM276 2v164h82v-164h-82z" />
<glyph horiz-adv-x="288" d="M51 0v164h82v-164h-82zM51 705v163h82v-163h-82z" />
<glyph horiz-adv-x="348" d="M-12 -252l84 430h86l-107 -430h-63zM66 705v163h81v-163h-81z" />
<glyph horiz-adv-x="614" d="M98 1534h375v-66h-301v-1654h301v-66h-373z" />
<glyph horiz-adv-x="614" d="M104 -186h302v1654h-302v66h375l-2 -1786h-373v66z" />
<glyph horiz-adv-x="204" d="M-41 1413h244l-10 -471h-230z" />
<glyph horiz-adv-x="727" d="M68 1413h243l-10 -471h-229zM391 1413h244l-10 -471h-230z" />
<glyph horiz-adv-x="1433" d="M78 426q0 182 77.5 271t256.5 141q-66 72 -85.5 133t-19.5 155q0 133 80 214t234 81q160 0 236.5 -79.5t76.5 -217.5q0 -147 -78 -230t-260 -142l383 -379q41 119 63 299h72q-29 -221 -80 -353l287 -280l-49 -53l-268 266q-135 -270 -455 -270q-258 0 -364.5 112.5 t-106.5 331.5zM150 428q0 -190 94 -284.5t309 -94.5q281 0 397 254l-485 481q-176 -47 -245.5 -122.5t-69.5 -233.5zM379 1126q0 -160 92 -252l74 -73q178 61 247.5 128.5t69.5 196.5q0 229 -241.5 229t-241.5 -229z" />
<glyph horiz-adv-x="1167" d="M233 0v70h189v696h-141v65h141v195q0 213 66.5 290t213.5 77l246 -25v-65q-178 25 -246 24q-111 0 -159.5 -62.5t-48.5 -238.5v-195h372v-65h-372v-696h356l168 32l14 -65l-166 -35z" />
<glyph horiz-adv-x="1214" d="M139 502v69h127q-2 33 -2 107q0 86 2 127h-127v69h131q20 262 131 387t373 125q195 0 359 -38l-7 -72q-186 41 -352 41q-227 0 -318 -106.5t-108 -336.5l637 -2v-67h-641q-2 -41 -2 -127q0 -74 2 -107l641 -2v-67h-639q16 -236 107.5 -343.5t320.5 -107.5l352 41l7 -69 q-197 -41 -359 -41q-262 0 -373.5 124.5t-130.5 395.5h-131z" />
<glyph horiz-adv-x="1705" d="M504 1407l71 29l617 -1407l-72 -29z" />
<glyph horiz-adv-x="1064" d="M55 -70h877v-69h-877v69z" />
<glyph horiz-adv-x="1259" d="M211 0v1434h522q217 0 320.5 -102.5t103.5 -330.5q0 -229 -96 -352t-328 -123h-448v-526h-74zM285 596h448q346 0 346 405q0 188 -85 275.5t-261 87.5h-448v-768z" />
<glyph d="M6 684v74h688v-74h-688zM309 285v164h82v-164h-82zM309 989v164h82v-164h-82z" />
<glyph horiz-adv-x="839" d="M-100 479v70h475v475h74v-475h479v-70h-479v-479h-74v479h-475z" />
<glyph horiz-adv-x="901" d="M123 541v69h655v-69h-655z" />
<glyph d="M129 602v74l711 469v-80l-645 -422l645 -444v-84q-641 436 -711 487z" />
<glyph d="M2 702v70h1034v-70h-1034zM4 356v70h1034v-70h-1034z" />
<glyph d="M129 115v84l645 444l-645 422v80l711 -469v-74z" />
<glyph d="M94 25l568 1413l67 -29l-567 -1411z" />
<glyph horiz-adv-x="1794" d="M123 535q0 283 95 395t325 112q299 0 377 -245q90 246 372 245q195 0 292 -116.5t97 -374.5v-68h-727q0 -221 70 -328.5t242 -107.5l372 19l4 -66q-229 -18 -378 -18q-268 2 -346 219q-37 -115 -125 -167t-250 -52q-250 0 -335 119t-85 434zM199 535q0 -143 11 -226.5 t48 -148t104.5 -89t180.5 -24.5q111 0 179.5 27.5t102 94.5t44 146.5t10.5 214.5q0 242 -81 344.5t-255 102.5q-199 0 -271.5 -93t-72.5 -349zM954 549h652q0 231 -75 329.5t-239 98.5q-338 0 -338 -428z" />
<glyph horiz-adv-x="1839" d="M72 0l514 1434h1130v-70h-764v-590h641v-69h-641v-635h764v-70h-837v440h-566l-159 -440h-82zM338 510h541v854h-236z" />
<glyph horiz-adv-x="1343" d="M94 711q0 377 119 559t430 182q168 0 287 -57l106 227l68 -29l-113 -237q111 -86 156 -244t45 -401q0 -391 -115.5 -560t-433.5 -169q-162 0 -274 47l-119 -256l-68 26l123 264q-117 78 -164 236t-47 412zM172 711q0 -229 36 -368.5t130 -211.5l559 1196q-98 55 -254 55 q-143 0 -237.5 -43t-144.5 -134t-69.5 -206.5t-19.5 -287.5zM399 94q96 -43 244 -43t241 38t143 125t68.5 201.5t18.5 295.5q0 430 -156 573z" />
<glyph horiz-adv-x="1695" d="M113 281q0 143 63.5 206.5t218.5 87.5l389 41v107q0 250 -227 250l-385 -19l-4 68q225 20 389 20q236 0 285 -196q100 197 352 196q195 0 292 -116.5t97 -374.5v-68h-727q0 -221 69.5 -328.5t241.5 -107.5l373 19l4 -66q-229 -18 -379 -18q-203 2 -293 118l-77 -32 q-190 -86 -422 -86q-260 0 -260 299zM188 281q0 -113 49.5 -173.5t137.5 -60.5q86 0 198.5 24.5t173 45t95.5 35.5q-61 121 -62 360v37l-377 -37q-113 -10 -164 -65t-51 -166zM856 549h651q0 231 -74.5 329.5t-238.5 98.5q-338 0 -338 -428z" />
<glyph d="M102 498q0 545 435 544q215 0 326.5 -121.5t111.5 -424.5q0 -283 -115 -398.5t-321 -115.5q-203 0 -320 116.5t-117 399.5zM248 500q0 -217 73.5 -301t219 -84t217 82t71.5 299q0 240 -70.5 326.5t-219.5 86.5q-143 0 -217 -86.5t-74 -322.5z" />
<glyph d="M190 791l388 233h129v-1024h-146v858l-311 -184z" />
<glyph d="M182 0v129l350 289q129 102 180.5 168.5t51.5 146.5q0 96 -57.5 134t-192.5 38q-45 0 -125 -9t-138 -17.5t-58 -10.5l-11 131q219 43 371 43q365 0 365 -292q0 -119 -54.5 -197t-175.5 -172l-309 -248h563v-133h-760z" />
<glyph d="M199 23l18 131q213 -31 379 -31q238 2 238 174q0 94 -63.5 130t-170.5 42h-258v129h256q88 4 146.5 42t58.5 120t-54.5 114.5t-164.5 32.5l-355 -30l-16 131q213 37 369 36q180 0 273 -59t93 -197q0 -33 -6 -60.5t-16.5 -49t-25.5 -41t-27.5 -31.5t-30 -23.5t-27.5 -16.5 l-23 -12q-13 -7 -16 -7q90 -29 146.5 -86.5t56.5 -171.5q0 -154 -102.5 -230.5t-280.5 -76.5q-76 0 -175 10t-161 20z" />
<glyph d="M119 190v113l319 721h154l-313 -694h409v272h146v-272h108v-140h-108v-231h-146v231h-569z" />
<glyph d="M184 31l19 131q242 -41 389 -41q231 0 231 207q0 186 -233 186q-117 0 -281 -72l-110 25l37 561h702v-147h-571l-27 -295q139 63 266 63q373 0 373 -313q0 -170 -100.5 -262t-282.5 -92q-74 0 -177.5 12t-168.5 24z" />
<glyph d="M156 520q0 522 430 522q70 0 149.5 -7t124.5 -15l47 -8l-10 -123q-180 25 -311 24q-137 0 -212 -77.5t-75 -262.5q0 2 47 20.5t120 37t124 18.5q375 0 375 -327q0 -164 -110 -253t-302 -89q-397 -1 -397 540zM299 451q6 -342 262 -342q258 0 258 213q0 102 -58.5 147 t-182.5 45q-119 -2 -279 -63z" />
<glyph d="M145 895v131h703v-174l-438 -870l-127 36l424 836v41h-562z" />
<glyph d="M121 266q0 113 48 169.5t144 101.5q-172 72 -172 237q0 268 389 268q395 0 396 -270q0 -168 -183 -235q98 -39 149.5 -94.5t51.5 -168.5q0 -295 -414 -294q-409 -1 -409 286zM266 276q0 -94 68.5 -132t195.5 -38q133 0 201 39t68 140q0 86 -45 123.5t-142 62.5h-172 q-88 -23 -131 -67t-43 -128zM287 764q0 -74 35.5 -112t117.5 -62h172q86 20 127 59t41 113q0 154 -250 153q-123 0 -183 -35.5t-60 -115.5z" />
<glyph d="M133 702q0 162 104.5 252t282.5 90q406 0 406 -530q0 -532 -430 -532q-72 0 -153 9t-126 17l-43 10l12 123q166 -29 310 -28q281 0 280 342q-143 -70 -278 -70q-180 0 -272.5 81.5t-92.5 235.5zM279 705q0 -190 229 -191q131 6 264 68q-6 334 -256 333q-237 1 -237 -210z " />
<glyph d="M496 -121v1555h71v-1555h-71z" />
<glyph horiz-adv-x="894" d="M25 506q0 399 356 434v270h72v-266l237 -22l-4 -72q-154 18 -233 20v-712l237 16l4 -72q-162 -18 -241 -18v-260h-72v260q-188 10 -272 100.5t-84 321.5zM106 506q0 -195 59.5 -266.5t215.5 -79.5v706q-137 -14 -206 -100t-69 -260z" />
<glyph d="M125 696v70h506l147 334l72 -29l-135 -305h280v-70h-311l-135 -309h448v-70h-479l-147 -337l-72 28l135 309h-307v70h338l135 309h-475z" />
<glyph horiz-adv-x="1105" d="M51 1352h84l420 -633l414 633h86l-391 -604h344v-70h-390l-26 -41v-195h418v-69h-418v-373h-74v373h-420v69h420v195l-26 41h-396v70h350z" />
<glyph d="M184 -512v1536h72v-528q0 -270 49 -359.5t215 -89.5q172 0 332 100l4 3v874h72v-1024h-72v82l-49 -28q-31 -17 -120 -44.5t-167 -27.5q-193 0 -264 104v-598h-72z" />
<glyph d="M143 -496l4 68q127 -6 185 -6q94 0 141 68.5t47 230.5v856h-141v65h141v228q0 365 260 364l191 -6l-4 -65q-125 4 -187 4q-188 0 -188 -299v-226h332v-65h-332v-856q0 -199 -64.5 -283t-195.5 -84z" />
<glyph horiz-adv-x="348" d="M-12 -252l86 430h82l-105 -430h-63z" />
<glyph horiz-adv-x="507" d="M201 0v164h82v-164h-82z" />
<glyph horiz-adv-x="348" d="M8 1079l82 410h78l-98 -410h-62z" />
<glyph horiz-adv-x="1705" d="M240 1073q0 158 109.5 259.5t271.5 101.5h712v-68h-198v-1366h-74v1366h-352v-1366h-74v717h-14q-162 0 -271.5 99t-109.5 257z" />
<glyph horiz-adv-x="583" d="M-2 -197q168 8 230.5 79t62.5 218q0 35 -7.5 125t-7.5 119q0 133 45.5 195.5t159.5 99.5q-115 37 -160 100.5t-45 190.5l15 237q0 147 -62.5 218t-230.5 79l4 66q195 -8 277.5 -93t82.5 -270q0 -43 -7 -136t-7 -116q0 -100 48 -154t165 -87v-66q-117 -29 -165 -86 t-48 -160q0 -27 7 -124t7 -138q0 -184 -82.5 -269t-277.5 -93z" />
<glyph horiz-adv-x="348" d="M-45 1079l98 410h62l-82 -410h-78z" />
<glyph horiz-adv-x="0" d="M178 344q0 55 10.5 101.5t22.5 75t40 60t43 46t54 44t53 42.5l-41 32q-31 25 -39 33l-33 30q-24 22 -31 34t-22.5 35.5t-19.5 45.5l-9 50q-5 29 -5 63q0 340 481 340q489 0 489 -342q0 -39 -3 -69.5t-17 -59t-20.5 -43t-33.5 -42.5l-34 -34q-6 -6 -46 -37.5t-46 -35.5 q14 -12 62 -48t64.5 -53.5t45 -55.5t39 -83t10.5 -106q0 -215 -133 -303.5t-377 -88.5q-504 0 -504 369zM481 418q0 -152 201 -152q207 0 207 152q0 102 -113 155h-180q-66 -31 -90.5 -67.5t-24.5 -87.5zM504 963q0 -14 1 -24.5t6 -21t8 -15.5t13.5 -14t15.5 -12.5 t22.5 -14.5t25.5 -17h180q8 6 22.5 15t19.5 13.5t15.5 11.5t13.5 12t9 12t7 14.5t3 17.5t2 23q0 66 -38.5 94t-143 28t-143.5 -29.5t-39 -92.5z" />
<glyph horiz-adv-x="733" d="M43 774v248h121v266l274 21v-287h252v-248h-252v-387q0 -61 3 -87t22.5 -44t60.5 -18l156 4l12 -236q-137 -31 -209 -31q-184 0 -251.5 83t-67.5 307v409h-121z" />
<glyph horiz-adv-x="901" d="M123 461v229h655v-229h-655z" />
<glyph horiz-adv-x="507" d="M92 0v291h270v-291h-270z" />
<glyph d="M2 217v270h1036v-270h-1036zM2 641v270h1034v-270h-1034z" />
<glyph horiz-adv-x="1064" d="M55 31h877v-271h-877v271z" />
<glyph horiz-adv-x="694" d="M49 545v188q213 53 213 185q0 27 -7 124t-7 138q0 186 89 268t312 90v-229q-94 -8 -119.5 -38t-25.5 -112q0 -35 7 -114.5t7 -108.5q0 -135 -45 -195.5t-160 -99.5q117 -39 161 -98.5t44 -192.5q0 -29 -7 -105.5t-7 -111.5q0 -84 26.5 -116.5t118.5 -41.5v-229 q-223 8 -312 94t-89 273q0 43 7 136t7 116q0 121 -213 180z" />
<glyph horiz-adv-x="583" d="M-219 -33q94 8 119.5 38t25.5 112q0 35 -7 114.5t-7 108.5q0 135 45 195.5t160 99.5q-117 39 -161 98.5t-44 192.5q0 29 7 105.5t7 111.5q0 84 -26.5 116.5t-118.5 40.5v230q223 -8 312 -94t89 -273q0 -43 -7 -136t-7 -116q0 -121 213 -180v-188q-213 -53 -213 -185 q0 -27 7 -124t7 -138q0 -186 -89 -268t-312 -90v229z" />
<glyph horiz-adv-x="839" d="M-100 389v250h387v385h250v-385h391v-250h-391v-389h-250v389h-387z" />
<glyph horiz-adv-x="542" d="M31 114.5q0 184.5 61.5 262.5t181.5 78q123 0 183.5 -78t60.5 -262.5t-61.5 -262t-180.5 -77.5q-121 0 -183 77.5t-62 262zM166 115q0 -125 27.5 -172t83 -47t81 46t25.5 173q0 121 -25.5 170t-83 49t-83 -49t-25.5 -170z" />
<glyph horiz-adv-x="542" d="M61 291l209 143h123v-639h-131v496l-139 -96z" />
<glyph horiz-adv-x="542" d="M45 -90l180 176q104 100 105 170q0 74 -101 74l-172 -21l-6 121q123 25 211 25q106 0 155.5 -45t49.5 -142q0 -117 -127 -231l-125 -123h260v-119h-430v115z" />
<glyph horiz-adv-x="542" d="M51 -205l10 115q115 -14 205 -14q100 0 101 84q0 86 -95 86h-135v110h133q29 0 53.5 26.5t24.5 63.5q0 68 -92 68l-186 -15l-11 115q121 20 209 21q217 0 217 -172q0 -102 -82 -154q51 -16 75 -49t24 -107q0 -199 -219 -198q-45 0 -102.5 5t-94.5 11z" />
<glyph horiz-adv-x="542" d="M31 6l141 428h143l-149 -420h151l13 181h119v-181h53v-120h-53v-99h-132v99h-286v112z" />
<glyph horiz-adv-x="542" d="M61 -195l11 113q111 -23 194 -22q96 0 96 100q0 92 -81 92q-25 0 -51.5 -7t-41.5 -15l-14 -9l-102 13l20 364h383v-117h-274l-11 -145q49 31 117 31q193 0 193 -203q0 -109 -59.5 -165t-159.5 -56q-43 0 -98.5 6t-88.5 14z" />
<glyph horiz-adv-x="542" d="M41 106q0 180 61.5 264.5t194.5 84.5q33 0 79 -5.5t75 -11.5l30 -4l-8 -110q-102 12 -172 12q-63 0 -93 -35t-32 -115l19 7q18 6 48.5 14t53.5 8q211 0 211 -211q0 -106 -61.5 -167.5t-163.5 -61.5q-242 -1 -242 331zM176 70q0 -178 103 -179q96 0 96 111 q0 55 -22.5 77.5t-71.5 22.5z" />
<glyph horiz-adv-x="542" d="M53 307v127h426v-158l-217 -499l-143 26l211 461v43h-277z" />
<glyph horiz-adv-x="542" d="M27 -31q0 119 102 162q-92 33 -92 150q0 174 233 174q236 0 236 -174q0 -123 -90 -152q98 -29 98 -152q0 -111 -62.5 -156.5t-181.5 -45.5q-243 -1 -243 194zM164 -29q0 -84 106 -84q109 0 109 90q0 70 -80 95h-55q-80 -25 -80 -101zM170 268q0 -63 74 -90h55 q74 25 74 88q0 76 -103 76q-100 0 -100 -74z" />
<glyph horiz-adv-x="542" d="M35 229q0 106 63.5 166t165.5 60q242 0 242 -342q0 -180 -60.5 -259t-193.5 -79q-39 0 -86 6t-76 12l-29 6l9 109q92 -12 170 -12q129 0 129 145q-68 -25 -125 -25q-100 0 -154.5 56.5t-54.5 156.5zM170 231q0 -47 24.5 -76.5t67.5 -29.5q20 0 48 7t46 15l17 9 q-4 180 -105 180q-98 -1 -98 -105z" />
<glyph horiz-adv-x="1523" d="M176 0v233h166v-233h-166zM696 0v233h168v-233h-168zM1219 0v233h165v-233h-165z" />
<glyph horiz-adv-x="790" d="M16 -76q0 96 40 178t97.5 136.5t115 100.5t97.5 97t40 105v77h161v-83q0 -72 -40 -136.5t-97 -113.5l-114 -98q-56 -48 -96 -112.5t-40 -135.5q0 -117 62.5 -165t208.5 -48q45 0 125.5 12t138.5 24l57 13l19 -152q-233 -55 -345 -55q-221 0 -325.5 81.5t-104.5 274.5z M401 788v234h168v-234h-168z" />
<glyph horiz-adv-x="790" d="M29 334q0 96 40 178t97 136t114.5 100.5t97.5 97.5t40 104v78h162v-84q0 -72 -40 -136.5t-98 -112.5l-113 -97q-56 -49 -96 -113.5t-40 -136.5q0 -117 62 -165t208 -48q45 0 126 12.5t138 24.5l57 12l19 -151q-233 -55 -344 -56q-221 0 -325.5 82t-104.5 275zM414 1198 v234h168v-234h-168z" />
<glyph horiz-adv-x="790" d="M29 334q0 96 40 178t97 136t114.5 100.5t97.5 97.5t40 104v78h162v-84q0 -72 -40 -136.5t-98 -112.5l-113 -97q-56 -49 -96 -113.5t-40 -136.5q0 -117 62 -165t208 -48q45 0 126 12.5t138 24.5l57 12l19 -151q-233 -55 -344 -56q-221 0 -325.5 82t-104.5 275zM414 1198 v234h168v-234h-168z" />
<glyph horiz-adv-x="1024" d="M0 545v143h1024v-143h-1024z" />
<glyph horiz-adv-x="2048" d="M0 545v143h2048v-143h-2048z" />
<glyph horiz-adv-x="507" d="M158 571v234h166v-234h-166z" />
<glyph d="M471 1034v234h168v-234h-168zM473 -164l4 957h158l4 -957h-166z" />
<glyph horiz-adv-x="532" d="M74 678q0 182 49 411.5t98 368.5l51 139h162q-23 -59 -54.5 -158.5t-85.5 -344t-54 -416.5q0 -342 178 -830l16 -43h-162q-23 51 -55.5 139.5t-87.5 320t-55 413.5z" />
<glyph horiz-adv-x="532" d="M66 -184q23 59 54.5 158.5t85.5 344t54 416.5q0 342 -178 830l-16 43h161q23 -51 55.5 -139.5t88 -319.5t55.5 -413.5t-49 -412t-98 -368.5l-52 -139h-161z" />
<glyph horiz-adv-x="614" d="M84 -190v1785h430v-147h-274v-1491h274v-147h-430z" />
<glyph horiz-adv-x="614" d="M80 -43h274v1491h-274v147h430v-1785h-430v147z" />
<glyph horiz-adv-x="628" d="M20 633v131q115 29 160 80t45 141q0 27 -7 124t-7 138q0 188 91 270t302 91l2 -148q-137 -8 -185 -58t-48 -163q0 -35 7 -129t7 -123q0 -127 -45 -188.5t-160 -98.5q113 -37 159 -100t46 -190q0 -6 -7 -100.5t-7 -137.5q0 -113 48 -165t185 -60l-2 -148q-209 8 -301 92 t-92 267q0 43 7 135t7 115q0 90 -45 142t-160 83z" />
<glyph horiz-adv-x="628" d="M8 -61q137 8 185.5 58t48.5 163q0 35 -7.5 129t-7.5 123q0 127 45 188.5t160 97.5q-113 37 -159 100.5t-46 190.5q0 6 7.5 100.5t7.5 137.5q0 113 -48.5 165t-185.5 60l2 147q209 -8 301 -92t92 -266q0 -43 -7 -135t-7 -115q0 -90 45 -142t160 -83v-131 q-115 -29 -160 -80t-45 -141q0 -27 7 -124t7 -138q0 -188 -91 -270.5t-302 -90.5z" />
<glyph horiz-adv-x="483" d="M16 1774l58 141l446 -193l-51 -127z" />
<glyph horiz-adv-x="483" d="M37 1774l57 141l447 -193l-52 -127z" />
<glyph horiz-adv-x="483" d="M20 1731l447 194l55 -143l-450 -176z" />
<glyph horiz-adv-x="483" d="M25 1731l446 194l55 -143l-450 -176z" />
<glyph horiz-adv-x="946" d="M111 1636l272 277h137l273 -277h-179l-161 154l-160 -154h-182z" />
<glyph horiz-adv-x="483" d="M-59 1636l272 277h137l273 -277h-179l-161 154l-160 -154h-182z" />
<glyph horiz-adv-x="483" d="M-72 1909h183l159 -156l162 156h178l-272 -275h-135z" />
<glyph horiz-adv-x="483" d="M-74 1909h183l159 -156l162 156h178l-272 -275h-135z" />
<glyph horiz-adv-x="483" d="M-76 1788q115 123 199 123q57 0 182 -56.5t150 -56.5q18 0 57 23.5t70 46.5l28 24l37 -116q-106 -119 -188 -119q-51 0 -178 57.5t-156 57.5q-23 0 -64 -26t-69 -50l-31 -25z" />
<glyph horiz-adv-x="483" d="M-76 1788q115 123 199 123q57 0 182 -56.5t150 -56.5q18 0 57 23.5t70 46.5l28 24l37 -116q-106 -119 -188 -119q-51 0 -178 57.5t-156 57.5q-23 0 -64 -26t-69 -50l-31 -25z" />
<glyph horiz-adv-x="483" d="M-31 1679v185h150v-185h-150zM393 1679v185h148v-185h-148z" />
<glyph horiz-adv-x="483" d="M-31 1679v185h150v-185h-150zM393 1679v185h148v-185h-148z" />
<glyph horiz-adv-x="483" d="M-45 1671v135h637v-135h-637z" />
<glyph horiz-adv-x="483" d="M-45 1671v135h637v-135h-637z" />
<glyph horiz-adv-x="483" d="M-43 1896h158q2 -63 48 -100t116 -37q72 0 117.5 37t47.5 100h158q-6 -121 -94 -194.5t-229.5 -73.5t-228.5 73.5t-93 194.5z" />
<glyph horiz-adv-x="483" d="M-43 1896h158q2 -63 48 -100t116 -37q72 0 117.5 37t47.5 100h158q-6 -121 -94 -194.5t-229.5 -73.5t-228.5 73.5t-93 194.5z" />
<glyph horiz-adv-x="483" d="M27 1602q0 100 68.5 157.5t175 57.5t174 -57.5t67.5 -157.5q0 -102 -67.5 -160t-174.5 -58q-109 0 -176 58t-67 160zM152 1601.5q0 -49.5 31.5 -77t86.5 -27.5q53 0 85 27.5t32 77t-30.5 76t-86 26.5t-87 -26.5t-31.5 -76z" />
<glyph horiz-adv-x="483" d="M14 1602q0 100 69 157.5t175.5 57.5t174 -57.5t67.5 -157.5q0 -102 -67.5 -160t-174.5 -58q-109 0 -176.5 58t-67.5 160zM139 1601.5q0 -49.5 32 -77t87 -27.5q53 0 85 27.5t32 77t-31 76t-86 26.5t-87 -26.5t-32 -76z" />
<glyph horiz-adv-x="483" d="M-90 1616l291 270l118 -74l-296 -264zM322 1616l290 268l121 -74l-299 -264z" />
<glyph horiz-adv-x="483" d="M-90 1616l291 270l118 -74l-296 -264zM322 1616l290 268l121 -74l-299 -264z" />
<glyph horiz-adv-x="483" d="M166 1599v179h151v-179h-151z" />
<glyph horiz-adv-x="483" d="M166 1599v179h151v-179h-151z" />
<glyph horiz-adv-x="542" d="M31 1093.5q0 184.5 61.5 262.5t181.5 78q123 0 183.5 -78t60.5 -262.5t-61.5 -262t-180.5 -77.5q-121 0 -183 77.5t-62 262zM166 1094q0 -125 27.5 -172.5t83 -47.5t81 46.5t25.5 173.5q0 121 -25.5 170t-83 49t-83 -49t-25.5 -170z" />
<glyph horiz-adv-x="542" d="M53 1270l209 143h123v-639h-131v496l-139 -96z" />
<glyph horiz-adv-x="542" d="M45 774v115l180 176q104 100 105 170q0 74 -101 74l-172 -21l-6 121q123 25 211 25q106 0 155.5 -45.5t49.5 -141.5q0 -117 -127 -231l-125 -123h260v-119h-430z" />
<glyph horiz-adv-x="542" d="M51 774l10 115q115 -14 205 -15q100 0 101 84q0 86 -95 86h-135v111h133q29 0 53.5 26.5t24.5 63.5q0 68 -92 68l-186 -15l-11 115q121 20 209 21q217 0 217 -172q0 -102 -82 -154q51 -16 75 -49t24 -107q0 -199 -219 -198q-45 0 -102.5 5t-94.5 11z" />
<glyph horiz-adv-x="542" d="M31 872v113l141 428h143l-149 -420h151l13 181h119v-181h53v-121h-53v-98h-132v98h-286z" />
<glyph horiz-adv-x="542" d="M61 784l11 113q111 -23 194 -23q96 0 96 101q0 92 -81 92q-25 0 -51.5 -7t-41.5 -16l-14 -8l-102 13l20 364h383v-117h-274l-11 -145q49 31 117 31q193 0 193 -203q0 -109 -59.5 -165t-159.5 -56q-43 0 -98.5 6t-88.5 14z" />
<glyph horiz-adv-x="542" d="M41 1085q0 180 61.5 264.5t194.5 84.5q33 0 79 -5.5t75 -11.5l30 -4l-8 -110q-102 12 -172 12q-63 0 -93 -35t-32 -115l19 6q18 6 48.5 14.5t53.5 8.5q211 0 211 -211q0 -106 -61.5 -167.5t-163.5 -61.5q-242 -1 -242 331zM176 1049q0 -178 103 -179q96 0 96 111 q0 55 -22.5 77.5t-71.5 22.5z" />
<glyph horiz-adv-x="542" d="M53 1286v127h426v-158l-217 -499l-143 26l211 461v43h-277z" />
<glyph horiz-adv-x="542" d="M27 948q0 119 102 162q-92 33 -92 150q0 174 233 174q236 0 236 -174q0 -123 -90 -152q98 -29 98 -152q0 -111 -62.5 -156.5t-181.5 -45.5q-243 -1 -243 194zM164 950q0 -84 106 -84q109 0 109 90q0 70 -80 95h-55q-80 -25 -80 -101zM170 1247q0 -63 74 -90h55 q74 25 74 88q0 76 -103 76q-100 0 -100 -74z" />
<glyph horiz-adv-x="542" d="M35 1208q0 106 63.5 166t165.5 60q242 0 242 -342q0 -180 -60.5 -259t-193.5 -79q-39 0 -86 6t-76 12l-29 6l9 109q92 -12 170 -13q129 0 129 146q-68 -25 -125 -25q-100 0 -154.5 56.5t-54.5 156.5zM170 1210q0 -47 24.5 -76.5t67.5 -29.5q20 0 48 7t46 15l17 9 q-4 180 -105 180q-98 -1 -98 -105z" />
</font>
</defs>
</svg>
